Login / Register
720p

Ghost.of.Goodnight.Lane.2014.720p.WEB-DL.XviD.AC3-RARBG

Category: Video
Type: Movies
Language: English
Movie Title: Ghost of Goodnight Lane
Detected quality: 720p
Release date: 2014-02-28
Cast: Lacey Chabert,Danielle Harris,Matt Dallas,Rosa Nichols,Timothy Drummond,Tina Ryker,Alisha Revel,Sophia Arias,Vicente Moctezuma,LilyRose Bijan,Contact Point's Megawatt,Natalie Noe,Jennifer Korbin,Brina Palencia,Billy Zane,Allyn Carrell,Richard Tyson
Genre: Fantasy, Horror
External Links: IMDB
Director: Alin Bijan
Producers: Alin Bijan,Amin Emam,Ben Loggins,Tara Di Leva,Tina Ryker,J.D. Sanders,Ryker Young
Writers: Alin Bijan,Amy Acosta
Duration: 30
IMDB rating: 6.8 (52 votes)
Summary: When the staff inside a renovated film studio finds a co-worker dead one morning, the pieces of a forty year puzzle add up to an angry ghost who has let the last person step inside her house. But will they ever get out alive?
Votes
Good: 0
Bad: 0
GoodBad
0
Seeders
1
Leechers

Added: 2014-06-13

Size: 2.64 GB

Health: 25%

Hash (Base16): 3347B52AE05CB218891041ABAEA43045C1CAA5E1

Hash (Base32): GND3KKXALSZBRCIQIGV25JBQIXA4VJPB

DownloadBookmark
^

Ghost.of.Goodnight.Lane.2014.720p.WEB-DL.XviD.AC3-RARBG

image

Title: Ghost of Goodnight Lane (2014)
IMDB Rating: 6.8/10
Genres: Comedy , Horror
Actors: Lacey Chabert , Billy Zane , Danielle Harris , Matt Dallas , Richard Tyson , Brina Palencia , Jennifer Korbin , Christine Bently , Melissa Cordero , Erin Marie Garrett , Rosa Nichols , Alisha Revel , Lynn Andrews III , Taylor Kowald , Josh Davis
Year: 2014
Plot:
When the staff inside a renovated film studio finds a co-worker dead one morning| the pieces of a forty year puzzle add up to an angry ghost who has let the last
person step inside her house. But will they ever get out alive?

Ghost.of.Goodnight.Lane.2014.720p.WEB-DL.XviD.AC3-RARBG

http://www.imdb.com/title/tt1974393/

Screens:
image
image
image
image

Info:
Format : AVI
Format/Info : Audio Video Interleave
Format profile : OpenDML
File size : 2.64 GiB
Duration : 1h 37mn
Overall bit rate : 3 880 Kbps
Movie name : RARBG.COM - Ghost.of.Goodnight.Lane.2014.720p.WEB-DL.XviD.AC3-RARBG
Writing library : VirtualDub build 35491/release
Comment : RARBG.COM - Ghost.of.Goodnight.Lane.2014.720p.WEB-DL.XviD.AC3-RARBG

Video
ID : 0
Format : MPEG-4 Visual
Format profile : [email protected]
Format settings, BVOP : No
Format settings, QPel : No
Format settings, GMC : No warppoints
Format settings, Matrix : Default (H.263)
Codec ID : XVID
Codec ID/Hint : XviD
Duration : 1h 37mn
Bit rate : 3 485 Kbps
Width : 1 280 pixels
Height : 544 pixels
Display aspect ratio : 2.35:1
Frame rate : 23.976 fps
Color space : YUV
Chroma subsampling : 4:2:0
Bit depth : 8 bits
Scan type : Progressive
Compression mode : Lossy
Bits/(Pixel*Frame) : 0.209
Stream size : 2.37 GiB (90%)
Writing library : Lavc55.61.100

Audio
ID : 1
Format : AC-3
Format/Info : Audio Coding 3
Mode extension : CM (complete main)
Format settings, Endianness : Big
Codec ID : 2000
Duration : 1h 37mn
Bit rate mode : Constant
Bit rate : 384 Kbps
Channel(s) : 6 channels
Channel positions : Front: L C R, Side: L R, LFE
Sampling rate : 48.0 KHz
Bit depth : 16 bits
Compression mode : Lossy
Stream size : 268 MiB (10%)
Alignment : Aligned on interleaves
Interleave, duration : 42 ms (1.00 video frame)
Interleave, preload duration : 512 ms





Notes:
Looking for global BluRay suppliers!
Greetz to everyone :)

TRACKERSEEDLEECHDOWNLOADED
udp://9.rarbg.me:2710/announce
udp://11.rarbg.me:80/announce
udp://10.rarbg.me:80/announce
udp://12.rarbg.me:80/announce
udp://9.rarbg.com:2710/announce
udp://open.demonii.com:1337/announce
udp://tracker.publicbt.com:80/announce
udp://tracker.istole.it:80/announce
udp://tracker.openbittorrent.com:80/announce
udp://tracker.istole.it:6969/announce
http://tracker.trackerfix.com/announce
udp://tracker.ccc.de:80/announce
http://tracker.thepiratebay.org/announce
udp://tracker-ccc.de:6969/announce
FILESIZE
Ghost.of.Goodnight.Lane.2014.720p.WEB-DL.XviD.AC3-RARBG.avi2.64 GB
RARBG.com.avi1.14 MB
Ghost.of.Goodnight.Lane.2014.720p.WEB-DL.XviD.AC3-RARBG.nfo3.24 KB
RARBG.com.txt31 B

Related results

Date Title Size Files Seeds Leechs Category Health
Video(Movies) 977.4 MB 4 2014-06-12 0 1 25%
Video(Movies) 1.53 GB 4 2014-06-12 0 1 25%

Login

Account deleting

Are you sure you want to delete your account?

WARNING: This action cannot be undone!!!