Login / Register

Her First Lesbian Sex 22 WEBRiP 480P-RARBG

Category: XXX
Type: Other
Votes
Good: 0
Bad: 0
GoodBad
0
Seeders
2
Leechers

Added: 2014-07-14

Size: 1.53 GB

Health: 25%

Hash (Base16): A70606024397828E558480DDE563428EF4D97E2C

Hash (Base32): U4DAMASDS6BI4VMEQDO6KY2CR32NS7RM

DownloadBookmark
^




[code]Video
ID                                       : 1
Format                                   : AVC
Format/Info                              : Advanced Video Codec
Format profile                           : Main@L3.1
Format settings, CABAC                   : Yes
Format settings, ReFrames                : 4 frames
Codec ID                                 : avc1
Codec ID/Info                            : Advanced Video Coding
Duration                                 : 1h 55mn
Bit rate                                 : 1 750 Kbps
Width                                    : 854 pixels
Height                                   : 480 pixels
Display aspect ratio                     : 16:9
Original display aspect ratio            : 16:9
Frame rate mode                          : Variable
Frame rate                               : 30.000 fps
Minimum frame rate                       : 2.364 fps
Maximum frame rate                       : 30.000 fps
Color space                              : YUV
Chroma subsampling                       : 4:2:0
Bit depth                                : 8 bits
Scan type                                : Progressive
Bits/(Pixel*Frame)                       : 0.142
Stream size                              : 1.42 GiB (93%)
Writing library                          : x264 core 142 r2431 ac76440

Audio
ID                                       : 2
Format                                   : AAC
Format/Info                              : Advanced Audio Codec
Format profile                           : LC
Codec ID                                 : 40
Duration                                 : 1h 55mn
Bit rate mode                            : Variable
Bit rate                                 : 129 Kbps
Channel(s)                               : 2 channels
Channel positions                        : Front: L R
Sampling rate                            : 48.0 KHz
Compression mode                         : Lossy
Stream size                              : 106 MiB (7%)[/code]

TRACKERSEEDLEECHDOWNLOADED
http://mgtracker.org:2710/announce
udp://9.rarbg.me:2710/announce
udp://11.rarbg.me:80/announce
udp://10.rarbg.me:80/announce
udp://12.rarbg.me:80/announce
udp://9.rarbg.com:2710/announce
udp://open.demonii.com:1337/announce
udp://tracker.publicbt.com:80/announce
udp://tracker.istole.it:80/announce
udp://tracker.openbittorrent.com:80/announce
http://tracker.istole.it/announce
http://tracker.trackerfix.com/announce
http://exodus.desync.com:6969/announce
http://9.rarbg.com:2710/announce
udp://tracker.ccc.de:80/announce
udp://11.rarbg.com/announce
udp://10.rarbg.com/announce
udp://pornleech.com:2710/announce
udp://pornleech.me:2710/announce
FILESIZE
Cover/1.jpg160.11 KB
Cover/0.jpg129.38 KB
Her First Lesbian Sex 22 WEBRiP 480P-RARBG.mp41.53 GB
Torrent Downloaded From RARBG.com.txt52 B

Login

Account deleting

Are you sure you want to delete your account?

WARNING: This action cannot be undone!!!