Login / Register

DPFanatics.Lee.Lexxus.wmv

Category: XXX
Type: Other
Votes
Good: 0
Bad: 0
GoodBad
1
Seeders
1
Leechers

Added: 2014-07-13

Size: 252.45 MB

Health: 25%

Hash (Base16): 3573C0056ECBB816913A35BC742E956031CFF76A

Hash (Base32): GVZ4ABLOZO4BNEJ2GW6HILUVMAY4753K

DownloadBookmark
^

[mediainfo]
Video
Format                                   : VP6
Codec ID                                 : 4
Duration                                 : 29mn 56s
Bit rate                                 : 1 000 Kbps
Width                                    : 640 pixels
Height                                   : 360 pixels
Display aspect ratio                     : 16:9
Frame rate mode                          : Constant
Frame rate                               : 25.000 fps
Bit depth                                : 8 bits
Bits/(Pixel*Frame)                       : 0.174
Stream size                              : 214 MiB (85%)

Audio
Format                                   : MPEG Audio
Format version                           : Version 1
Format profile                           : Layer 3
Mode                                     : Joint stereo
Mode extension                           : MS Stereo
Codec ID                                 : 2
Codec ID/Hint                            : MP3
Duration                                 : 29mn 56s
Bit rate mode                            : Constant
Bit rate                                 : 96.0 Kbps
Channel(s)                               : 2 channels
Sampling rate                            : 44.1 KHz
Compression mode                         : Lossy
Stream size                              : 20.6 MiB (8%)
Writing library                          : LAME3.96


[/mediainfo]

TRACKERSEEDLEECHDOWNLOADED
udp://tracker.coppersurfer.tk:6969/announce
udp://9.rarbg.me:2710/announce
udp://11.rarbg.me:80/announce
udp://10.rarbg.me:80/announce
udp://12.rarbg.me:80/announce
udp://9.rarbg.com:2710/announce
udp://open.demonii.com:1337/announce
udp://tracker.publicbt.com:80/announce
udp://tracker.istole.it:80/announce
udp://tracker.openbittorrent.com:80/announce
http://tracker.ccc.de/announce
http://tracker.istole.it/announce
http://tracker.nwps.ws:6969/announce
http://tracker.dler.org:6969/announce
http://tracker.best-torrents.net:6969/announce
http://bigfoot1942.sektori.org:6969/announce
http://tracker.trackerfix.com/announce
http://leopard.raws.ws:6969/announce
udp://exodus.desync.com:6969/announce
http://exodus.desync.com:6969/announce
udp://tracker.publicbt.com/announce
http://tracker.publicbt.com/announce
udp://tracker.ccc.de:80/announce
http://announce.torrentsmd.com:6969/announce
http://fr33dom.h33t.com:3310/announce
http://tracker.thepiratebay.org/announce
http://tot.is:6969/announce
http://torrent.gresille.org/announce
http://torrent-tracker.ru/announce.php
http://tracker.yibis.com:6969/announce
udp://tracker.token.ro:80/announce
udp://ipv4.tracker.harry.lu:80/announce
udp://tracker.ilibr.org:6969/announce
udp://tracker.zond.org:80/announce
udp://shadowshq.yi.org:6969/announce
udp://fr33dom.h33t.eu:3310/announce
udp://tracker.btzoo.eu:80/announce
http://tracker.winglai.com/announce
http://tracker.windsormetalbattery.com/announce
FILESIZE
RARBG.com.txt31 B
dpf.v6145.199.wmv252.26 MB
poster.jpg82.95 KB
screens.jpg112.14 KB

Login

Account deleting

Are you sure you want to delete your account?

WARNING: This action cannot be undone!!!