Login / Register

22.Jump.Street.2014.CAM.NEW.AUDIO.XviD.MP3-RARBG

Category: Video
Type: Movies
Movie Title: Transformers 4
Cast: Michael Bay,Ehren Kruger,Nicola Peltz,Mark Wahlberg,Abigail Klein,Stanley Tucci,Sophia Myles,Jack Reynor,Peter Cullen,Bingbing Li,Titus Welliver,Kelsey Grammer,T.J. Miller,King,Victoria Summer,Melanie Specht,Cleo King,Michael Wong,Aaron Lee Wrigh
Genre: Action, Adventure, Sci-Fi
Director: Michael Bay
Producer: Steven Spielberg
Writer: Ehren Kruger
Summary: A mechanic and his daughter make a discovery that brings down Autobots and Decepticons - and a paranoid government official - on them.
Votes
Good: 0
Bad: 0
GoodBad
3
Seeders
0
Leechers

Added: 2014-06-23

Size: 1.58 GB

Health: 100%

Hash (Base16): 109F9BAFB2A11A7B8055AE7C275BE563ED28B0CD

Hash (Base32): CCPZXL5SUENHXACVVZ6COW7FMPWSRMGN

DownloadBookmark
^

22.Jump.Street.2014.CAM.NEW.AUDIO.XviD.MP3-RARBG

image

Title: 22 Jump Street (2014)
IMDB Rating: 8.0/10
Genres: Action , Comedy , Crime
Actors: Jonah Hill , Channing Tatum , Peter Stormare , Wyatt Russell , Amber Stevens , Jillian Bell , Ice Cube , The Lucas Brothers , Nick Offerman , Jimmy Tatro , Caroline Aaron , Craig Roberts , Marc Evan Jackson , Joe Chrest , Eddie J. Fernandez
Runtime: 112
Year: 2014
Plot:
After making their way through high school (twice)| big changes are in store for officers Schmidt (Jonah Hill) and Jenko (Channing Tatum) when they go deep
undercover at a local college. But when Jenko meets a kindred spirit on the football team| and Schmidt infiltrates the bohemian art major scene| they begin to
question their partnership. Now they don't have to just crack the case - they have to figure out if they can have a mature relationship. If these two overgrown
adolescents can grow from freshmen into real men| college might be the best thing that ever happened to them.


22.Jump.Street.2014.CAM.NEW.AUDIO.XviD.MP3-RARBG

http://imdb.com/title/tt2294449/

Screens:
image
image
image
image
image
image

Info:
Format : AVI
Format/Info : Audio Video Interleave
File size : 1.58 GiB
Duration : 1h 39mn
Overall bit rate : 2 269 Kbps
Movie name : RARBG.COM - 22.Jump.Street.2014.CAM.NEW.AUDIO.XviD.MP3-RARBG
Writing library : VirtualDub build 35491/release
Comment : RARBG.COM - 22.Jump.Street.2014.CAM.NEW.AUDIO.XviD.MP3-RARBG

Video
ID : 0
Format : MPEG-4 Visual
Format profile : Simple@L5
Format settings, BVOP : No
Format settings, QPel : No
Format settings, GMC : No warppoints
Format settings, Matrix : Default (H.263)
Codec ID : XVID
Codec ID/Hint : XviD
Duration : 1h 39mn
Bit rate : 1 999 Kbps
Width : 720 pixels
Height : 320 pixels
Display aspect ratio : 2.25:1
Frame rate : 29.970 fps
Color space : YUV
Chroma subsampling : 4:2:0
Bit depth : 8 bits
Scan type : Progressive
Compression mode : Lossy
Bits/(Pixel*Frame) : 0.289
Stream size : 1.39 GiB (88%)
Writing library : Lavc55.61.100

Audio
ID : 1
Format : MPEG Audio
Format version : Version 1
Format profile : Layer 3
Mode : Joint stereo
Codec ID : 55
Codec ID/Hint : MP3
Duration : 1h 39mn
Bit rate mode : Constant
Bit rate : 256 Kbps
Channel(s) : 2 channels
Sampling rate : 48.0 KHz
Compression mode : Lossy
Stream size : 183 MiB (11%)
Alignment : Aligned on interleaves
Interleave, duration : 24 ms (0.72 video frame)
Interleave, preload duration : 504 ms




Notes:
Sauce: MiLLENiUM [THX]
Greetz to everyone :)

TRACKERSEEDLEECHDOWNLOADED
http://mgtracker.org:2710/announce100
udp://9.rarbg.me:2710/announce
udp://11.rarbg.me:80/announce
udp://10.rarbg.me:80/announce
udp://12.rarbg.me:80/announce
udp://9.rarbg.com:2710/announce
udp://open.demonii.com:1337/announce
udp://tracker.publicbt.com:80/announce
udp://tracker.istole.it:80/announce
udp://tracker.openbittorrent.com:80/announce
udp://tracker.istole.it:6969/announce
http://tracker.istole.it/announce
http://tracker.leechers-paradise.org:6969/announce
http://bt.careland.com.cn:6969/announce
http://bttracker.crunchbanglinux.org:6969/announce
http://tracker.best-torrents.net:6969/announce
http://tracker.trackerfix.com/announce
udp://tracker.ccc.de:80/announce
http://tracker.thepiratebay.org/announce
http://shadowshq.eddie4.nl:6969/announce
http://www.eddie4.nl:6969/announce
http://eddie4.nl:6969/announce
http://retracker.adminko.org/announce
http://retracker.uln-ix.ru/announce
http://sugoi.pomf.se/announce
http://retracker.perm.ertelecom.ru/announce
http://95.85.40.114/announce
http://bt.ttk.artvid.ru:6969/announce
http://121.14.98.151:9090/announce
udp://tracker-ccc.de:6969/announce
FILESIZE
22.Jump.Street.2014.CAM.NEW.AUDIO.XviD.MP3-RARBG.avi1.58 GB
RARBG.com.avi1.14 MB
22.Jump.Street.2014.CAM.NEW.AUDIO.XviD.MP3-RARBG.nfo3.07 KB
RARBG.com.txt31 B

Login

Account deleting

Are you sure you want to delete your account?

WARNING: This action cannot be undone!!!