Login / Register

JulesJordan.Skin.Diamond.Skin.Diamond.Oiled.Up.Ready.For.Double.Penetration.mp4

Category: XXX
Type: Other
Votes
Good: 0
Bad: 0
GoodBad
1
Seeders
0
Leechers

Added: 2014-07-13

Size: 959.62 MB

Health: 25%

Hash (Base16): 191D80B853F8C5E309910B38F3974A8ADEE47C69

Hash (Base32): DEOYBOCT7DC6GCMRBM4PHF2KRLPOI7DJ

DownloadBookmark
^

[mediainfo]
Video
ID                                       : 1
Format                                   : AVC
Format/Info                              : Advanced Video Codec
Format profile                           : [email protected]
Format settings, CABAC                   : Yes
Format settings, ReFrames                : 3 frames
Codec ID                                 : avc1
Codec ID/Info                            : Advanced Video Coding
Duration                                 : 32mn 58s
Bit rate                                 : 4 000 Kbps
Width                                    : 1 280 pixels
Height                                   : 720 pixels
Display aspect ratio                     : 16:9
Frame rate mode                          : Constant
Frame rate                               : 29.970 fps
Color space                              : YUV
Chroma subsampling                       : 4:2:0
Bit depth                                : 8 bits
Scan type                                : Progressive
Bits/(Pixel*Frame)                       : 0.145
Stream size                              : 942 MiB (98%)
Writing library                          : x264 core 124 r2197 69a0443
Encoding settings                        : cabac=1 / ref=3 / deblock=1:0:0 / analyse=0x1:0x111 / me=hex / subme=5 / psy=0 / mixed_ref=0 / me_range=16 / chroma_me=1 / trellis=1 / 8x8dct=0 / cqm=0 / deadzone=21,11 / fast_pskip=1 / chroma_qp_offset=0 / threads=12 / sliced_threads=0 / nr=0 / decimate=1 / interlaced=0 / bluray_compat=0 / constrained_intra=0 / bframes=3 / b_pyramid=0 / b_adapt=1 / b_bias=0 / direct=1 / weightb=0 / open_gop=0 / weightp=2 / keyint=300 / keyint_min=29 / scenecut=40 / intra_refresh=0 / rc=abr / mbtree=0 / bitrate=4000 / ratetol=1.0 / qcomp=0.60 / qpmin=10 / qpmax=51 / qpstep=4 / ip_ratio=1.40 / pb_ratio=1.30 / aq=1:1.00
Encoded date                             : UTC 2014-06-10 18:49:24
Tagged date                              : UTC 2014-06-10 18:49:24

Audio
ID                                       : 2
Format                                   : AAC
Format/Info                              : Advanced Audio Codec
Format profile                           : LC
Codec ID                                 : 40
Duration                                 : 32mn 59s
Bit rate mode                            : Constant
Bit rate                                 : 64.2 Kbps
Channel(s)                               : 2 channels
Channel positions                        : Front: L R
Sampling rate                            : 48.0 KHz
Compression mode                         : Lossy
Delay relative to video                  : -1s 1ms
Stream size                              : 15.1 MiB (2%)
Encoded date                             : UTC 2014-06-10 18:49:24
Tagged date                              : UTC 2014-06-10 18:49:24


[/mediainfo]

TRACKERSEEDLEECHDOWNLOADED
udp://tracker.coppersurfer.tk:6969/announce
udp://9.rarbg.me:2710/announce
udp://11.rarbg.me:80/announce
udp://10.rarbg.me:80/announce
udp://12.rarbg.me:80/announce
udp://9.rarbg.com:2710/announce
udp://tracker.publicbt.com:80/announce
udp://tracker.istole.it:80/announce
udp://tracker.openbittorrent.com:80/announce
http://tracker.istole.it/announce
http://tracker.dler.org:6969/announce
http://tracker.trackerfix.com/announce
http://leopard.raws.ws:6969/announce
udp://exodus.desync.com:6969/announce
udp://tracker.publicbt.com/announce
http://tot.is:6969/announce
http://tracker.yibis.com:6969/announce
udp://shadowshq.yi.org:6969/announce
udp://fr33dom.h33t.eu:3310/announce
FILESIZE
RARBG.com.txt31 B
oil.overload.11.scene6.720.mp4959.31 MB
poster.jpg60.16 KB
screens.jpg256.36 KB

Login

Account deleting

Are you sure you want to delete your account?

WARNING: This action cannot be undone!!!