Login / Register
Cam

How To Train Your Dragon 2 2014 READNFO CAM XviD-HELLRAZ0R

Category: Video
Type: Movies
Language: English
Movie Title: How to Train Your Dragon 2
Detected quality: Cam
Cast: Jay Baruchel,Jonah Hill,Cate Blanchett,Kristen Wiig,Christopher Mintz-Plasse,Kit Harington,Djimon Hounsou,T.J. Miller,America Ferrera,Craig Ferguson,Derek Blankenship,Randy Thom,Gideon Emery,Andrew Ableson,Kieron Elliott,Philip McGrade,Simon Kassianides
Genre: Animation, Action, Adventure
External Links: IMDB
Director: Dean DeBlois
Producers: Bonnie Arnold,Michael A. Connolly,Doug Davison,Dean DeBlois,Aaron Dem,Roy Lee,Chris Sanders,Kendra Haaland,Kate Spencer
Writers: Dean DeBlois,Cressida Cowell
Duration: 105
IMDB rating: 8.0 (134,965 votes)
Summary: It's been five years since Hiccup and Toothless successfully united dragons and vikings on the island of Berk. While Astrid, Snoutlout and the rest of the gang are challenging each other to dragon races (the island's new favorite contact sport), the now inseparable pair journey through the skies, charting unmapped territories and exploring new worlds. When one of their adventures leads to the discovery of a secret ice cave that is home to hundreds of new wild dragons and the mysterious Dragon Rider, the two friends find themselves at the center of a battle to protect the peace. Now, Hiccup and Toothless must unite to stand up for what they believe while recognizing that only together do they have the power to change the future of both men and dragons.
Votes
Good: 0
Bad: 0
GoodBad
0
Seeders
1
Leechers

Added: 2014-06-22

Size: 716.79 MB

Health: 25%

Hash (Base16): 626CB456D1BEBAF44F783576F2B8EB595E7FCC10

Hash (Base32): MJWLIVWRX25PIT3YGV3PFOHLLFPH7TAQ

DownloadBookmark
^

How To Train Your Dragon 2 2014 READNFO CAM XviD-HELLRAZ0R

image

Title: How to Train Your Dragon 2 (2014)
IMDB Rating: 8.6/10
Genres: Animation , Action , Adventure , Comedy , Family , Fantasy
Actors: Jay Baruchel , Cate Blanchett , Gerard Butler , Craig Ferguson , America Ferrera , Jonah Hill , Christopher Mintz-Plasse , T.J. Miller , Kristen Wiig , Djimon Hounsou , Kit Harington , Kieron Elliott , Philip McGrade , Andrew Ableson , Gideon Emery
Runtime: 102
Year: 2014
Plot:
It's been five years since Hiccup and Toothless successfully united dragons and vikings on the island of Berk. While Astrid| Snotlout and the rest of the gang are
challenging each other to dragon races (the island's new favorite contact sport)| the now inseparable pair journey through the skies| charting unmapped territories
and exploring new worlds. When one of their adventures leads to the discovery of a secret ice cave that is home to hundreds of new wild dragons and the mysterious
Dragon Rider| the two friends find themselves at the center of a battle to protect the peace. Now| Hiccup and Toothless must unite to stand up for what they believe
while recognizing that only together do they have the power to change the future of both men and dragons.

| HELLRAZ0R |

How To Train Your Dragon 2 2014 READNFO CAM XviD-HELLRAZ0R

Format : AVI @ 1,072 Kbps
Size : 705 MiB
Length : 1h 32mn
Type : CAM
Source : RUSSiANS/SPANiSH

Video : MPEG-4 Visual XviD @ 934 Kbps
Info : 624 x 256 @ 25.000 fps

Audio : MPEG Audio (MP3) @ 128 Kbps
Info : 2 channels, 48.0 KHz
Language : English

Plot:
When Hiccup and Toothless discover an ice cave that is home to hundreds of new wild dragons and the mysterious
Dragon Rider, the two friends find themselves at the center of a battle to protect the peace.

http://www.imdb.com/title/tt1646971/

Ratings: 6.7/10 from 13,886 users | Metascore: 49/100
Reviews: 56 user | 113 critic | 34 from Metacritic.com

Notes: {READNFO} First 3mins 51secs in russian due to incomplete english audio.

Gonna keep this short, sweet and to the point; Used the Russian Video, tweaked, filtered, cropped and resized it.
Took the english audio from the Spanish CAM rls, boosted volume, muxed, made a few small cuts and then synced it
over the top of the video. Video does still have quite a bit of movement, oh and it features some fat guys head that
pops up every now and again, don't blame us, blame him. - This would be a great CAM if it wasn't for the movement and
the guy with the megamind sized head but meh; here's a decent enough first proper CAM with no dumb ass watermarks and
an overall better video (not that any of you have probably seen the first source anyway.)

P.S - Honestly was not going to release this at all, but we put the work in on the sources at hand where nobody else
has as of yet. Watchable as always if you're desperate. We don't watch CAM's ourselves, we just do the best with what
sources are available because we know that some people do. :P

Screens:
image
image
image
image
image
image

[mediainfo]Format : AVI
Format/Info : Audio Video Interleave
File size : 705 MiB
Duration : 1h 32mn
Overall bit rate : 1 072 Kbps
Writing application : VirtualDubMod 1.5.10.3 | www.virtualdub-fr.org || (build 2550/release)
Writing library : VirtualDub build 32842/release

Video
ID : 0
Format : MPEG-4 Visual
Format profile : Advanced Simple@L5
Format settings, BVOP : 2
Format settings, QPel : No
Format settings, GMC : No warppoints
Format settings, Matrix : Default (H.263)
Muxing mode : Packed bitstream
Codec ID : XVID
Codec ID/Hint : XviD
Duration : 1h 32mn
Bit rate : 934 Kbps
Width : 624 pixels
Height : 256 pixels
Display aspect ratio : 2.40:1
Frame rate : 25.000 fps
Color space : YUV
Chroma subsampling : 4:2:0
Bit depth : 8 bits
Scan type : Progressive
Compression mode : Lossy
Bits/(Pixel*Frame) : 0.234
Stream size : 615 MiB (87%)
Writing library : XviD 64

Audio
ID : 1
Format : MPEG Audio
Format version : Version 1
Format profile : Layer 3
Mode : Joint stereo
Codec ID : 55
Codec ID/Hint : MP3
Duration : 1h 32mn
Bit rate mode : Constant
Bit rate : 128 Kbps
Channel(s) : 2 channels
Sampling rate : 48.0 KHz
Compression mode : Lossy
Delay relative to video : 18ms
Stream size : 84.3 MiB (12%)
Alignment : Split accross interleaves
Interleave, duration : 40 ms (1.00 video frame)
Interleave, preload duration : 500 ms[/mediainfo]

TRACKERSEEDLEECHDOWNLOADED
udp://9.rarbg.me:2710/announce
udp://11.rarbg.me:80/announce
udp://10.rarbg.me:80/announce
udp://12.rarbg.me:80/announce
udp://9.rarbg.com:2710/announce
udp://open.demonii.com:1337/announce
udp://tracker.publicbt.com:80/announce
udp://tracker.istole.it:80/announce
udp://tracker.openbittorrent.com:80/announce
udp://tracker.istole.it:6969/announce
http://tracker.istole.it/announce
http://tracker1.wasabii.com.tw:6969/announce
http://tracker.nwps.ws:6969/announce
http://bt.careland.com.cn:6969/announce
http://tracker.trackerfix.com/announce
http://exodus.desync.com:6969/announce
udp://tracker.ccc.de:80/announce
http://tracker.thepiratebay.org/announce
http://www.eddie4.nl:6969/announce
http://explodie.org:6969/announce
udp://tracker-ccc.de:6969/announce
FILESIZE
HELLRAZ0R.nfo2.24 KB
How To Train Your Dragon 2 2014 READNFO CAM XviD-HELLRAZ0R.avi705.36 MB
RARBG.com.txt31 B
SAMPLE.avi11.43 MB

Related results

Date Title Size Files Seeds Leechs Category Health
Video(Movies) 1.41 GB 4 2014-07-17 1 0 25%
Video(Movies) 716.79 MB 4 2014-06-21 1 0 25%
Video(Movies) 1.41 GB 4 2014-07-17 1 0 25%
Video(Movies) 716.79 MB 4 2014-06-21 0 1 25%
Video(Movies) 1.41 GB 5 2014-07-18 1 0 25%
Video(Movies) 1.41 GB 4 2014-07-17 1 0 25%

Login

Account deleting

Are you sure you want to delete your account?

WARNING: This action cannot be undone!!!