Login / Register
TeleSync

Maleficent.2014.TS.XviD.MP3-RARBG

Category: Video
Type: Movies
Language: English
Movie Title: Maleficent
Detected quality: TeleSync
Release date: 2014-05-29
Cast: Sharlto Copley,Elle Fanning,Juno Temple,Brenton Thwaites,Ella Purnell,Imelda Staunton,Sam Riley,Lesley Manville,Hannah New,Kenneth Cranham,Leo Suter,Richard Summers-Calvert,Jackson Bews,Terri Douglas,Sandy Fox,Sandy Fox,David Boat,Jamie Sives
Genre: Action, Adventure, Drama
External Links: IMDB
Director: Robert Stromberg
Producers: Angelina Jolie,Stephen Jones,Joe Roth,Sarah Bradshaw,Don Hahn,Lori Korngiebel,Scott Michael Murray,Palak Patel,Matt Smith
Writers: Milt Banta,Charles Perrault,Ted Sears,Jacob Grimm,Wilhelm Grimm,Winston Hibler,Bill Peet,Erdman Penner,Ralph Wright,Joe Rinaldi,Linda Woolverton
Duration: 97
IMDB rating: 7.1 (175,067 votes)
Summary: The "Sleeping Beauty" tale is told from the perspective of the villainous Maleficent and looks at the events that hardened her heart and drove her to curse young Princess Aurora.
Votes
Good: 0
Bad: 0
GoodBad
4
Seeders
0
Leechers

Added: 2014-06-12

Size: 1.11 GB

Health: 100%

Hash (Base16): 698507E4D72B85FF5792EC8C640554933F5DC5F5

Hash (Base32): NGCQPZGXFOC76V4S5SGGIBKUSM7V3RPV

DownloadBookmark
^

Maleficent.2014.TS.XviD.MP3-RARBG

image

Title: Maleficent (2014)
IMDB Rating: 7.5/10
Genres: Action , Adventure , Family , Fantasy , Romance
Actors: Angelina Jolie , Elle Fanning , Sharlto Copley , Lesley Manville , Imelda Staunton , Juno Temple , Sam Riley , Brenton Thwaites , Kenneth Cranham , Sarah Flind , Hannah New , Isobelle Molloy , Michael Higgins , Ella Purnell , Jackson Bews
Runtime: 97
Year: 2014
Plot:
A beautiful| pure-hearted young woman| Maleficent has an idyllic life growing up in a peaceable forest kingdom| until one day when an invading army threatens the
harmony of the land. Maleficent rises to be the land's fiercest protector| but she ultimately suffers a ruthless betrayal - an act that begins to turn her pure heart
to stone. Bent on revenge| Maleficent faces a battle with the invading king's successor and| as a result| places a curse upon his newborn infant Aurora. As the child
grows| Maleficent realizes that Aurora holds the key to peace in the kingdom - and perhaps to Maleficent's true happiness as well.

Maleficent.2014.TS.XviD.MP3-RARBG

http://imdb.com/title/tt1587310/

Screens:
image
image
image
image
image
image
image
image
image

Info:
Format : AVI
Format/Info : Audio Video Interleave
File size : 1.11 GiB
Duration : 1h 28mn
Overall bit rate : 1 794 Kbps
Movie name : RARBG.COM - Maleficent.2014.TS.XviD.MP3-RARBG
Writing library : VirtualDub build 35491/release
Comment : RARBG.COM - Maleficent.2014.TS.XviD.MP3-RARBG

Video
ID : 0
Format : MPEG-4 Visual
Format profile : [email protected]
Format settings, BVOP : No
Format settings, QPel : No
Format settings, GMC : No warppoints
Format settings, Matrix : Default (H.263)
Codec ID : XVID
Codec ID/Hint : XviD
Duration : 1h 28mn
Bit rate : 1 654 Kbps
Width : 720 pixels
Height : 276 pixels
Display aspect ratio : 2.609
Frame rate : 23.976 fps
Color space : YUV
Chroma subsampling : 4:2:0
Bit depth : 8 bits
Scan type : Progressive
Compression mode : Lossy
Bits/(Pixel*Frame) : 0.347
Stream size : 1.02 GiB (92%)
Writing library : Lavc55.61.100

Audio
ID : 1
Format : MPEG Audio
Format version : Version 1
Format profile : Layer 3
Codec ID : 55
Codec ID/Hint : MP3
Duration : 1h 28mn
Bit rate mode : Constant
Bit rate : 128 Kbps
Channel(s) : 2 channels
Sampling rate : 44.1 KHz
Compression mode : Lossy
Stream size : 81.1 MiB (7%)
Alignment : Aligned on interleaves
Interleave, duration : 26 ms (0.63 video frame)
Interleave, preload duration : 522 ms
Writing library : LAME3.98.4



Notes:
Video: RARBG [FILTERED MiLLENiUM]
Audio: MiLLENiUM [THX]
Greetz to everyone :)

TRACKERSEEDLEECHDOWNLOADED
udp://tracker.coppersurfer.tk:6969/announce0017971
http://mgtracker.org:2710/announce003
udp://mgtracker.org:2710/announce003
udp://9.rarbg.me:2710/announce
udp://11.rarbg.me:80/announce
udp://10.rarbg.me:80/announce
udp://12.rarbg.me:80/announce
udp://9.rarbg.com:2710/announce
udp://open.demonii.com:1337/announce
udp://tracker.publicbt.com:80/announce
udp://tracker.istole.it:80/announce
udp://tracker.openbittorrent.com:80/announce
udp://tracker.istole.it:6969/announce
http://tracker.istole.it/announce
http://tracker1.wasabii.com.tw:6969/announce
http://tracker.nwps.ws:6969/announce
http://bt.careland.com.cn:6969/announce
http://tracker.best-torrents.net:6969/announce
http://tracker.trackerfix.com/announce
http://9.rarbg.com:2710/announce
udp://tracker.ccc.de:80/announce
http://tracker.thepiratebay.org/announce
http://www.eddie4.nl:6969/announce
http://explodie.org:6969/announce
udp://tracker-ccc.de:6969/announce
FILESIZE
Maleficent.2014.TS.XviD.MP3-RARBG.avi1.11 GB
RARBG.com.avi1.14 MB
Maleficent.2014.TS.XviD.MP3-RARBG.nfo3.05 KB
RARBG.com.txt31 B

Related results

Date Title Size Files Seeds Leechs Category Health
Video(Movies) 1.16 GB 5 2014-06-04 3 0 25%
Video(Movies) 2.85 GB 4 2014-09-05 0 4 25%
Video(Movies) 854.25 MB 4 2014-09-05 1 0 25%
Video(Movies) 2.93 GB 4 2014-09-05 0 1 25%
Video(Movies) 1.23 GB 4 2014-09-11 1 0 25%
Other(Unsorted) 3.02 GB 4 2014-09-11 1 0 25%

Login

Account deleting

Are you sure you want to delete your account?

WARNING: This action cannot be undone!!!