Login / Register

Nemesis.4.Death.Angel.1996.720p.BluRay.x264-iFPD

Category: Video
Type: Movies
Movie Title: Nemesis 4: Death Angel
Detected quality: 720p
Cast: Blanka Copikova,Andrew Divoff,Sue Price,Nicholas Guest,Norbert Weisser,Simon Poland,Andrej Lehota,Juro Rasla,Hracko Pavol,Michal Gucík
Genre: Action, Thriller, Sci-Fi
External Links: IMDB
Director: Albert Pyun
Producers: Jessica G. Budin,Tom Karnowski,Paul Rosenblum,Gary Schmoeller
Writer: Albert Pyun
Duration: 65
IMDB rating: 3.7 (591 votes)
Summary: Alex shoots again. She has to kill a man, but shoots the wrong one. A high ransom is set on her, so she is visited by some head hunters. Well, she only could sit and wait and hope for a friend's help.
Votes
Good: 0
Bad: 0
GoodBad
1
Seeders
0
Leechers

Added: 2014-07-15

Size: 3.28 GB

Health: 25%

Hash (Base16): 16007E77A9467288522FB5A0B128AF0CCB6F4C48

Hash (Base32): CYAH455JIZZIQURPWWQLCKFPBTFW6TCI

DownloadBookmark
^

Nemesis.4.Death.Angel.1996.720p.BluRay.x264-iFPD

image

Title: Nemesis 4: Death Angel (Video 1996)
IMDB Rating: 4.8/10
Genres: Action , Thriller
Actors: Blanka Copikova , Andrew Divoff , Michal Gucík , Nicholas Guest , Andrej Lehota , Hracko Pavol , Simon Poland , Sue Price , Juro Rasla , Norbert Weisser
Runtime: 65
Year: 1996
Plot:
Alex shoots again. She has to kill a man| but shoots the wrong one. A high ransom is set on her| so she is visited by some head hunters. Well| she only could sit and
wait and hope for a friend's help. [mediainfo]

Video
ID : 1
Format : AVC
Format/Info : Advanced Video Codec
Format profile : [email protected]
Format settings, CABAC : Yes
Format settings, ReFrames : 5 frames
Codec ID : V_MPEG4/ISO/AVC
Duration : 1h 19mn
Bit rate : 5 418 Kbps
Width : 1 280 pixels
Height : 720 pixels
Display aspect ratio : 16:9
Frame rate mode : Constant
Frame rate : 24.000 fps
Color space : YUV
Chroma subsampling : 4:2:0
Bit depth : 8 bits
Scan type : Progressive
Bits/(Pixel*Frame) : 0.245
Stream size : 2.96 GiB (90%)
Writing library : x264 core 142 r2431 ac76440
Encoding settings : cabac=1 / ref=5 / deblock=1:0:0 / analyse=0x3:0x113 / me=umh / subme=7 / psy=1 / psy_rd=1.00:0.00 / mixed_ref=1 / me_range=16 / chroma_me=1 / trellis=1 / 8x8dct=1 / cqm=0 / deadzone=21,11 / fast_pskip=0 / chroma_qp_offset=-2 / threads=12 / lookahead_threads=2 / sliced_threads=0 / nr=0 / decimate=1 / interlaced=0 / bluray_compat=0 / constrained_intra=0 / bframes=3 / b_pyramid=2 / b_adapt=2 / b_bias=0 / direct=3 / weightb=1 / open_gop=0 / weightp=2 / keyint=250 / keyint_min=24 / scenecut=40 / intra_refresh=0 / rc_lookahead=50 / rc=2pass / mbtree=1 / bitrate=5418 / ratetol=1.0 / qcomp=0.60 / qpmin=0 / qpmax=69 / qpstep=4 / cplxblur=20.0 / qblur=0.5 / ip_ratio=1.40 / aq=1:1.00
Default : Yes
Forced : No

Audio
ID : 2
Format : AC-3
Format/Info : Audio Coding 3
Mode extension : CM (complete main)
Format settings, Endianness : Big
Codec ID : A_AC3
Duration : 1h 19mn
Bit rate mode : Constant
Bit rate : 448 Kbps
Channel(s) : 6 channels
Channel positions : Front: L C R, Side: L R, LFE
Sampling rate : 48.0 KHz
Bit depth : 16 bits
Compression mode : Lossy
Stream size : 256 MiB (8%)
Title : English
Language : English
Default : Yes
Forced : No

[/mediainfo]

TRACKERSEEDLEECHDOWNLOADED
udp://tracker.coppersurfer.tk:6969/announce106
udp://9.rarbg.me:2710/announce
udp://11.rarbg.me:80/announce
udp://10.rarbg.me:80/announce
udp://12.rarbg.me:80/announce
udp://9.rarbg.com:2710/announce
udp://open.demonii.com:1337/announce
udp://tracker.publicbt.com:80/announce
udp://tracker.istole.it:80/announce
udp://tracker.openbittorrent.com:80/announce
udp://tracker.istole.it:6969/announce
http://tracker.istole.it/announce
http://tracker.dler.org:6969/announce
http://tracker.trackerfix.com/announce
http://9.rarbg.com:2710/announce
udp://tracker.ccc.de:80/announce
http://tracker.thepiratebay.org/announce
udp://tracker-ccc.de:6969/announce
FILESIZE
RARBG.com.txt31 B
ifpd-nemesis4.us-720p.mkv3.28 GB
ifpd-nemesis4.us-720p.nfo1.99 KB

Related results

Date Title Size Files Seeds Leechs Category Health
Video(Movies) 5.51 GB 4 2014-07-14 0 2 25%
Video(Movies) 3.28 GB 4 2014-07-14 0 1 25%

Login

Account deleting

Are you sure you want to delete your account?

WARNING: This action cannot be undone!!!