Login / Register

18OnlyGirls.Nancey.Owner.Of.My.Heart.mp4

Category: XXX
Type: Other
Votes
Good: 0
Bad: 0
GoodBad
0
Seeders
1
Leechers

Added: 2014-07-08

Size: 126.23 MB

Health: 25%

Hash (Base16): 2AB97F6930EA8007DC9A647D597A42D2DB30C8A9

Hash (Base32): FK4X62JQ5KAAPXE2MR6VS6SC2LNTBSFJ

DownloadBookmark
^

[mediainfo]
Video
ID                                       : 1
Format                                   : AVC
Format/Info                              : Advanced Video Codec
Format profile                           : [email protected]
Format settings, CABAC                   : Yes
Format settings, ReFrames                : 2 frames
Codec ID                                 : avc1
Codec ID/Info                            : Advanced Video Coding
Duration                                 : 18mn 54s
Bit rate                                 : 806 Kbps
Width                                    : 852 pixels
Height                                   : 480 pixels
Display aspect ratio                     : 16:9
Frame rate mode                          : Constant
Frame rate                               : 29.970 fps
Color space                              : YUV
Chroma subsampling                       : 4:2:0
Bit depth                                : 8 bits
Scan type                                : Progressive
Bits/(Pixel*Frame)                       : 0.066
Stream size                              : 109 MiB (87%)
Writing library                          : x264 core 102 r1666 d058f37
Encoding settings                        : cabac=1 / ref=2 / deblock=1:0:0 / analyse=0x3:0x113 / me=hex / subme=6 / psy=1 / psy_rd=1.00:0.00 / mixed_ref=0 / me_range=16 / chroma_me=1 / trellis=0 / 8x8dct=1 / cqm=0 / deadzone=21,11 / fast_pskip=1 / chroma_qp_offset=-2 / threads=24 / sliced_threads=0 / nr=0 / decimate=1 / interlaced=0 / constrained_intra=0 / bframes=3 / b_pyramid=0 / b_adapt=1 / b_bias=0 / direct=3 / weightb=1 / open_gop=0 / weightp=2 / keyint=250 / keyint_min=25 / scenecut=40 / intra_refresh=0 / rc_lookahead=40 / rc=crf / mbtree=1 / crf=20.0 / qcomp=0.60 / qpmin=10 / qpmax=51 / qpstep=4 / ip_ratio=1.41 / aq=1:1.00

Audio
ID                                       : 2
Format                                   : AAC
Format/Info                              : Advanced Audio Codec
Format profile                           : LC
Codec ID                                 : 40
Duration                                 : 18mn 54s
Bit rate mode                            : Variable
Bit rate                                 : 120 Kbps
Channel(s)                               : 2 channels
Channel positions                        : Front: L R
Sampling rate                            : 44.1 KHz
Compression mode                         : Lossy
Delay relative to video                  : -1s 1ms
Stream size                              : 16.2 MiB (13%)


[/mediainfo]

TRACKERSEEDLEECHDOWNLOADED
udp://9.rarbg.me:2710/announce
udp://11.rarbg.me:80/announce
udp://10.rarbg.me:80/announce
udp://12.rarbg.me:80/announce
udp://9.rarbg.com:2710/announce
udp://tracker.openbittorrent.com:80/announce
http://tracker.istole.it/announce
http://tracker.trackerfix.com/announce
http://server2.9sheng.cn:6969/announce
FILESIZE
18og.nancey.SD.mp4126.03 MB
RARBG.com.txt31 B
poster.jpg41.19 KB
screens.jpg157.17 KB

Login

Account deleting

Are you sure you want to delete your account?

WARNING: This action cannot be undone!!!