Login / Register

Royal.Marines.Commando.School.S01E01.HDTV.x264-C4TV[rartv]

Category: Video
Type: TV
Movie Title: Royal Marines Commando School
Season: 1
Episode: 1
Episode Title: The Shock of Capture
Release date: 2014-07-13
Cast: Jonnie Kinder,Reva Childs,Owen Thomas,Mark Owen,Ross Pimlot
Genre: Reality-TV
External Links: IMDB
Director: Colin Heck
Producer: Michael Dante DiMartino
Writer: Michael Dante DiMartino
Duration: 24
Original run: 2014-07-13
Summary: Documentary series with unprecedented behind the scenes access to the The Royal Marines Training Programme. The toughest basic training of any Armed Forces, in the world! 32 weeks to turn raw recruits into the best soldiers in the world! And the first two weeks are among the toughest. YES CORPORAL!
Votes
Good: 0
Bad: 0
GoodBad
0
Seeders
1
Leechers

Added: 2014-07-15

Size: 274.44 MB

Health: 25%

Hash (Base16): B333CDAEF8C949B4D1743C74F97A19239B11D80C

Hash (Base32): WMZ43LXYZFE3JULUHR2PS6QZEONRDWAM

DownloadBookmark
^

Royal.Marines.Commando.School.S01E01.HDTV.x264-C4TV[rartv]

image
[mediainfo]

Video
ID : 1
Format : AVC
Format/Info : Advanced Video Codec
Format profile : [email protected]
Format settings, CABAC : Yes
Format settings, ReFrames : 5 frames
Codec ID : avc1
Codec ID/Info : Advanced Video Coding
Duration : 46mn 28s
Bit rate : 698 Kbps
Maximum bit rate : 4 670 Kbps
Width : 720 pixels
Height : 404 pixels
Display aspect ratio : 16:9
Frame rate mode : Constant
Frame rate : 25.000 fps
Color space : YUV
Chroma subsampling : 4:2:0
Bit depth : 8 bits
Scan type : Progressive
Bits/(Pixel*Frame) : 0.096
Stream size : 232 MiB (84%)
Title : Video
Writing library : x264 core 142 r2431 ac76440
Encoding settings : cabac=1 / ref=5 / deblock=1:0:0 / analyse=0x3:0x113 / me=umh / subme=8 / psy=1 / psy_rd=1.00:0.00 / mixed_ref=1 / me_range=16 / chroma_me=1 / trellis=1 / 8x8dct=1 / cqm=0 / deadzone=21,11 / fast_pskip=1 / chroma_qp_offset=-2 / threads=12 / lookahead_threads=2 / sliced_threads=0 / nr=0 / decimate=1 / interlaced=0 / bluray_compat=0 / constrained_intra=0 / bframes=3 / b_pyramid=2 / b_adapt=2 / b_bias=0 / direct=3 / weightb=1 / open_gop=0 / weightp=2 / keyint=250 / keyint_min=25 / scenecut=40 / intra_refresh=0 / rc_lookahead=50 / rc=crf / mbtree=1 / crf=21.0 / qcomp=0.60 / qpmin=0 / qpmax=69 / qpstep=4 / ip_ratio=1.40 / aq=1:1.00
Matrix coefficients : BT.709

Audio
ID : 2
Format : AAC
Format/Info : Advanced Audio Codec
Format profile : LC
Codec ID : 40
Duration : 46mn 28s
Bit rate mode : Variable
Bit rate : 124 Kbps
Maximum bit rate : 132 Kbps
Channel(s) : 2 channels
Channel positions : Front: L R
Sampling rate : 48.0 KHz
Compression mode : Lossy
Stream size : 41.2 MiB (15%)
Title : English
Language : English

[/mediainfo]

TRACKERSEEDLEECHDOWNLOADED
udp://9.rarbg.me:2710/announce
udp://11.rarbg.me:80/announce
udp://10.rarbg.me:80/announce
udp://12.rarbg.me:80/announce
udp://9.rarbg.com:2710/announce
udp://open.demonii.com:1337/announce
udp://tracker.publicbt.com:80/announce
udp://tracker.istole.it:80/announce
udp://tracker.openbittorrent.com:80/announce
udp://tracker.istole.it:6969/announce
http://tracker.trackerfix.com/announce
http://9.rarbg.com:2710/announce
udp://tracker.ccc.de:80/announce
http://tracker.thepiratebay.org/announce
udp://tracker-ccc.de:6969/announce
FILESIZE
RARBG.com.txt31 B
royal.marines.commando.school.s01e01.hdtv.x264-c4tv.mp4274.44 MB
royal.marines.commando.school.s01e01.hdtv.x264-c4tv.nfo1.55 KB

Related results

Date Title Size Files Seeds Leechs Category Health
Video(TV) 799.47 MB 4 2014-07-14 1 0 25%
Video(TV) 972.29 MB 4 2014-07-21 1 0 25%
Video(TV) 335.07 MB 3 2014-07-21 0 1 25%
Video(TV) 280.58 MB 5 2014-07-14 0 1 25%
Video(TV) 253.17 MB 3 2014-07-21 0 1 25%
Video(TV) 451.29 MB 3 2014-08-25 0 3 25%
Video(TV) 1.02 GB 1 2014-09-05 3 4 100%

Login

Account deleting

Are you sure you want to delete your account?

WARNING: This action cannot be undone!!!