Login / Register
720p

The.Other.Woman.2014.720p.BRRip.XviD.AC3-RARBG

Category: Video
Type: Movies
Language: English
Subtitles: English
Movie Title: The Other Woman
Detected quality: 720p
Release date: 2014-04-24
Cast: Kate Upton,Cameron Diaz,Leslie Mann,Nikolaj Coster-Waldau,Taylor Kinney,Nicki Minaj,Don Johnson,Jeanmarie Lally,Uzimann,Nina Barry,Alyshia Ochse,Ashley Cusato,Madison McKinley,Victor Cruz,David Thornton,Tony Joe,Craig Castaldo,Alan Davis,Colin Bannon
Genre: Comedy, Romance
External Links: IMDB
Director: Nick Cassavetes
Producers: Maguy R. Cohen,Julie Yorn,Donald J. Lee Jr.,Chuck Pacheco,Patrick Walmsley
Writer: Melissa Stack
Duration: 109
IMDB rating: 6.0 (69,121 votes)
Summary: After discovering her boyfriend is married, Carly soon meets the wife he's been betraying. And when yet another love affair is discovered, all three women team up to plot revenge on the three-timing S.O.B.
Votes
Good: 0
Bad: 0
GoodBad
0
Seeders
1
Leechers

Added: 2014-07-15

Size: 3.39 GB

Health: 25%

Hash (Base16): 13B3B7176C0C1FB1D57E293DA7C4D2CD027D1D83

Hash (Base32): COZ3OF3MBQP3DVL6FE62PRGSZUBH2HMD

DownloadBookmark
^

The.Other.Woman.2014.720p.BRRip.XviD.AC3-RARBG

image

Title: The Other Woman (2014)
IMDB Rating: 6.4/10
Genres: Comedy , Romance
Actors: Cameron Diaz , Leslie Mann , Nikolaj Coster-Waldau , Don Johnson , Kate Upton , Taylor Kinney , Nicki Minaj , Kenneth Maharaj , Alyshia Ochse , Victor Cruz , Madison McKinley , David Thornton , Olivia Culpo , John 'B.J.' Bryant , Chelsea Turnbo
Runtime: 109
Year: 2014
Plot:
After discovering her boyfriend is married| Carly Whitten tries to get her ruined life back on track. But when she accidentally meets the wife he's been cheating on|
she realizes they have much in common| and her sworn enemy becomes her greatest friend. When yet another affair is discovered| all three women team up to plot mutual
revenge on their cheating| lying| three-timing SOB.


The.Other.Woman.2014.720p.BRRip.XviD.AC3-RARBG

http://imdb.com/title/tt2203939/

Screens:
image
image
image
image
image
image

Info:

[mediainfo]

Format : AVI
Format/Info : Audio Video Interleave
Format profile : OpenDML
File size : 3.39 GiB
Duration : 1h 49mn
Overall bit rate : 4 444 Kbps
Movie name : RARBG.COM - The.Other.Woman.2014.720p.BRRip.XviD.AC3-RARBG
Writing library : VirtualDub build 35491/release
Comment : RARBG.COM - The.Other.Woman.2014.720p.BRRip.XviD.AC3-RARBG

Video
ID : 0
Format : MPEG-4 Visual
Format profile : Simple@L5
Format settings, BVOP : No
Format settings, QPel : No
Format settings, GMC : No warppoints
Format settings, Matrix : Default (H.263)
Codec ID : XVID
Codec ID/Hint : XviD
Duration : 1h 49mn
Bit rate : 3 795 Kbps
Width : 1 280 pixels
Height : 534 pixels
Display aspect ratio : 2.40:1
Frame rate : 23.976 fps
Color space : YUV
Chroma subsampling : 4:2:0
Bit depth : 8 bits
Scan type : Progressive
Compression mode : Lossy
Bits/(Pixel*Frame) : 0.232
Stream size : 2.89 GiB (85%)
Writing library : Lavc55.61.100

Audio
ID : 1
Format : AC-3
Format/Info : Audio Coding 3
Mode extension : CM (complete main)
Format settings, Endianness : Big
Codec ID : 2000
Duration : 1h 49mn
Bit rate mode : Constant
Bit rate : 640 Kbps
Channel(s) : 6 channels
Channel positions : Front: L C R, Side: L R, LFE
Sampling rate : 48.0 KHz
Bit depth : 16 bits
Compression mode : Lossy
Stream size : 500 MiB (14%)
Alignment : Aligned on interleaves
Interleave, duration : 42 ms (1.00 video frame)
Interleave, preload duration : 512 ms



[/mediainfo]

Notes:
Greetz to everyone :)

TRACKERSEEDLEECHDOWNLOADED
http://mgtracker.org:2710/announce
udp://9.rarbg.me:2710/announce
udp://11.rarbg.me:80/announce
udp://10.rarbg.me:80/announce
udp://12.rarbg.me:80/announce
udp://9.rarbg.com:2710/announce
udp://open.demonii.com:1337/announce
udp://tracker.publicbt.com:80/announce
udp://tracker.istole.it:80/announce
udp://tracker.openbittorrent.com:80/announce
udp://tracker.istole.it:6969/announce
http://tracker.istole.it/announce
http://tracker.trackerfix.com/announce
udp://tracker.ccc.de:80/announce
http://tracker.thepiratebay.org/announce
udp://tracker-ccc.de:6969/announce
FILESIZE
The.Other.Woman.2014.720p.BRRip.XviD.AC3-RARBG.avi3.39 GB
RARBG.com.avi1.14 MB
The.Other.Woman.2014.720p.BRRip.XviD.AC3-RARBG.srt129.31 KB
The.Other.Woman.2014.720p.BRRip.XviD.AC3-RARBG.nfo3.06 KB
RARBG.com.txt31 B

Related results

Date Title Size Files Seeds Leechs Category Health
Video(Movies) 1.37 GB 5 2014-07-14 1 0 25%
Video(Movies) 1.57 GB 5 2014-07-14 0 1 25%

Login

Account deleting

Are you sure you want to delete your account?

WARNING: This action cannot be undone!!!