Login / Register

Duck.Dynasty.S06E04.Quack.Draft.HDTV.x264-W4F[rartv]

Category: Video
Type: TV
Movie Title: Duck Dynasty
Season: 6
Episode: 4
Episode Title: Quackdraft
Release date: 2014-07-01
Cast: River Robertson
Genre: Reality-TV
External Links: IMDB
Directors: Hisham Abed,Hugh Peterson,Jonathan Haug,Ryan Powers,Colin Hargraves,David Hobbes,Deirdre Gurney,Jonathan Haug,David Hobbes,Mike Odair,Mike Odair
Producers: Elaine Frontain Bryant,David McKillop,Justin Tucker,Scott Gurney,Laurie Sharpe,Joshua Harris,Ann C. Salzer,Nathan Oliver,Ryan Smith,Joshua Silberman,Archie Gips,Adam Saltzberg,Scott Teti,Peter Woronov,Hugh Peterson,Kevin Finn,Paul Matusheski
Duration: 60
Original run: 2012-03-20
IMDB rating: 6.8 (8,172 votes)
Summary: Follows a wealthy Louisiana family known for their successful duck-hunting business.
Votes
Good: 0
Bad: 0
GoodBad
0
Seeders
1
Leechers

Added: 2014-07-15

Size: 169.35 MB

Health: 25%

Hash (Base16): 4DC6F6D153AFAAF5AF21368A59714E4875D6F743

Hash (Base32): JXDPNUKTV6VPLLZBG2FFS4KOJB25N52D

DownloadBookmark
^

Duck.Dynasty.S06E04.Quack.Draft.HDTV.x264-W4F[rartv]

image
[mediainfo]

Video
ID : 1
Format : AVC
Format/Info : Advanced Video Codec
Format profile : High@L3.1
Format settings, CABAC : Yes
Format settings, ReFrames : 5 frames
Codec ID : avc1
Codec ID/Info : Advanced Video Coding
Duration : 21mn 9s
Bit rate : 1 003 Kbps
Maximum bit rate : 4 202 Kbps
Width : 720 pixels
Height : 404 pixels
Display aspect ratio : 16:9
Frame rate mode : Constant
Frame rate : 23.976 fps
Color space : YUV
Chroma subsampling : 4:2:0
Bit depth : 8 bits
Scan type : Progressive
Bits/(Pixel*Frame) : 0.144
Stream size : 152 MiB (90%)
Writing library : x264 core 142 r2431 ac76440
Encoding settings : cabac=1 / ref=5 / deblock=1:0:0 / analyse=0x3:0x113 / me=umh / subme=8 / psy=1 / psy_rd=1.00:0.00 / mixed_ref=1 / me_range=16 / chroma_me=1 / trellis=1 / 8x8dct=1 / cqm=0 / deadzone=21,11 / fast_pskip=1 / chroma_qp_offset=-2 / threads=12 / lookahead_threads=2 / sliced_threads=0 / nr=0 / decimate=1 / interlaced=0 / bluray_compat=0 / constrained_intra=0 / bframes=3 / b_pyramid=2 / b_adapt=2 / b_bias=0 / direct=3 / weightb=1 / open_gop=0 / weightp=2 / keyint=250 / keyint_min=25 / scenecut=40 / intra_refresh=0 / rc_lookahead=50 / rc=crf / mbtree=1 / crf=22.0 / qcomp=0.60 / qpmin=0 / qpmax=69 / qpstep=4 / ip_ratio=1.40 / aq=1:1.00
Encoded date : UTC 2014-07-11 02:30:24
Tagged date : UTC 2014-07-11 02:30:25
Matrix coefficients : BT.709

Audio
ID : 2
Format : AAC
Format/Info : Advanced Audio Codec
Format profile : LC
Codec ID : 40
Duration : 21mn 9s
Bit rate mode : Variable
Bit rate : 111 Kbps
Maximum bit rate : 149 Kbps
Channel(s) : 2 channels
Channel positions : Front: L R
Sampling rate : 48.0 KHz
Compression mode : Lossy
Stream size : 16.9 MiB (10%)
Language : English
Encoded date : UTC 2014-07-11 02:30:25
Tagged date : UTC 2014-07-11 02:30:25

[/mediainfo]

TRACKERSEEDLEECHDOWNLOADED
udp://9.rarbg.me:2710/announce
udp://11.rarbg.me:80/announce
udp://10.rarbg.me:80/announce
udp://12.rarbg.me:80/announce
udp://9.rarbg.com:2710/announce
udp://open.demonii.com:1337/announce
udp://tracker.publicbt.com:80/announce
udp://tracker.istole.it:80/announce
udp://tracker.openbittorrent.com:80/announce
udp://tracker.istole.it:6969/announce
http://tracker.istole.it/announce
http://tracker.trackerfix.com/announce
udp://tracker.ccc.de:80/announce
http://tracker.thepiratebay.org/announce
udp://tracker-ccc.de:6969/announce
FILESIZE
RARBG.com.txt31 B
duck.dynasty.s06e04.quack.draft.hdtv.x264-w4f.mp4169.34 MB
duck.dynasty.s06e04.quack.draft.hdtv.x264-w4f.nfo6.06 KB

Login

Account deleting

Are you sure you want to delete your account?

WARNING: This action cannot be undone!!!