Login / Register

WeLiveTogether.Charlie.Laine.Nikita.James.Nikki.Sammie.Rhodes.wmv

Category: XXX
Type: Other
Votes
Good: 0
Bad: 0
GoodBad
0
Seeders
1
Leechers

Added: 2014-07-13

Size: 526.27 MB

Health: 25%

Hash (Base16): A95B092872F1841AEE21435E3529168030A200D8

Hash (Base32): VFNQSKDS6GCBV3RBINPDKKIWQAYKEAGY

DownloadBookmark
^

[mediainfo]
Video
ID                                       : 2
Format                                   : VC-1
Format profile                           : MP@ML
Codec ID                                 : WMV3
Codec ID/Info                            : Windows Media Video 9
Codec ID/Hint                            : WMV3
Description of the codec                 : Windows Media Video 9 - Professional
Duration                                 : 50mn 36s
Bit rate mode                            : Constant
Bit rate                                 : 1 400 Kbps
Width                                    : 720 pixels
Height                                   : 480 pixels
Display aspect ratio                     : 3:2
Frame rate                               : 30.000 fps
Standard                                 : NTSC
Bit depth                                : 8 bits
Scan type                                : Progressive
Compression mode                         : Lossy
Bits/(Pixel*Frame)                       : 0.135
Stream size                              : 507 MiB (96%)

Audio
ID                                       : 1
Format                                   : WMA
Format version                           : Version 2
Codec ID                                 : 161
Codec ID/Info                            : Windows Media Audio
Description of the codec                 : Windows Media Audio 9.2 -  48 kbps, 44 kHz, stereo 1-pass CBR
Duration                                 : 50mn 36s
Bit rate mode                            : Constant
Bit rate                                 : 48.0 Kbps
Channel(s)                               : 2 channels
Sampling rate                            : 44.1 KHz
Bit depth                                : 16 bits
Stream size                              : 17.4 MiB (3%)


[/mediainfo]

TRACKERSEEDLEECHDOWNLOADED
http://mgtracker.org:2710/announce
udp://9.rarbg.me:2710/announce
udp://11.rarbg.me:80/announce
udp://10.rarbg.me:80/announce
udp://12.rarbg.me:80/announce
udp://9.rarbg.com:2710/announce
udp://open.demonii.com:1337/announce
udp://tracker.publicbt.com:80/announce
udp://tracker.istole.it:80/announce
udp://tracker.openbittorrent.com:80/announce
http://tracker.istole.it/announce
http://tracker.trackerfix.com/announce
udp://tracker.ccc.de:80/announce
FILESIZE
RARBG.com.txt31 B
nunchuk.nymphos.big.wmv526.05 MB
poster.jpg44.75 KB
screens.jpg171.9 KB

Login

Account deleting

Are you sure you want to delete your account?

WARNING: This action cannot be undone!!!