Login / Register
720p

United.Passions.2014.720p.WEB-DL.H264.AC3-EVO

Category: Video
Type: Movies
Movie Title: United Passions
Detected quality: 720p
Release date: 2014-06-18
Cast: Cheranich Stephan,Sam Neill,Thomas Kretschmann,Gérard Depardieu,Fisher Stevens,Tim Roth,Richard Dillane,Steven Elder,Martin Jarvis,Anthony Higgins,Antony Byrne,Jason Barry,Nicholas Gleaves,Andrew French,Bruce Mackinnon,Sean Campion,Antonio de la Torre
Genre: Drama
External Links: IMDB
Director: Frédéric Auburtin
Producers: Christine Gozlan,David Poirot-Gozlan,David Poirot-Gozlan,Tahir Maradov,Louisa Maurin
Writers: Frédéric Auburtin,Jean-Paul Delfino
Duration: 110
IMDB rating: 2.6 (354 votes)
Summary: The saga of the World cup and the three determined men who created it.
Votes
Good: 0
Bad: 0
GoodBad
1
Seeders
0
Leechers

Added: 2014-07-10

Size: 3.25 GB

Health: 25%

Hash (Base16): 754BEC3A98E911C3DA66D37A3BFDE1D252B2F52A

Hash (Base32): OVF6YOUY5EI4HWTG2N5DX7PB2JJLF5JK

DownloadBookmark
^

United.Passions.2014.720p.WEB-DL.H264.AC3-EVO

image
[mediainfo]


Format : Matroska
Format version : Version 4 / Version 2
File size : 3.25 GiB
Duration : 1h 49mn
Overall bit rate : 4 238 Kbps
Encoded date : UTC 2014-07-09 21:08:43
Writing application : mkvmerge v6.9.1 ('Blue Panther') 32bit built on Apr 18 2014 18:15:44
Writing library : libebml v1.3.0 + libmatroska v1.4.1

Video
ID : 1
Format : AVC
Format/Info : Advanced Video Codec
Format profile : [email protected]
Format settings, CABAC : No
Format settings, ReFrames : 2 frames
Codec ID : V_MPEG4/ISO/AVC
Duration : 1h 49mn
Bit rate : 3 770 Kbps
Width : 1 280 pixels
Height : 532 pixels
Display aspect ratio : 2.40:1
Frame rate mode : Constant
Frame rate : 24.000 fps
Color space : YUV
Chroma subsampling : 4:2:0
Bit depth : 8 bits
Scan type : Progressive
Bits/(Pixel*Frame) : 0.231
Stream size : 2.89 GiB (89%)
Language : English
Default : Yes
Forced : No
Color primaries : BT.709
Transfer characteristics : BT.709
Matrix coefficients : BT.709

Audio
ID : 2
Format : AC-3
Format/Info : Audio Coding 3
Mode extension : CM (complete main)
Format settings, Endianness : Big
Codec ID : A_AC3
Duration : 1h 49mn
Bit rate mode : Constant
Bit rate : 384 Kbps
Channel(s) : 6 channels
Channel positions : Front: L C R, Side: L R, LFE
Sampling rate : 48.0 KHz
Bit depth : 16 bits
Compression mode : Lossy
Stream size : 301 MiB (9%)
Language : English
Default : Yes
Forced : No

Menu
00:00:00.000 : en:1
00:10:00.000 : en:2
00:20:00.000 : en:3
00:30:00.000 : en:4
00:40:00.000 : en:5
00:50:00.000 : en:6
01:00:00.000 : en:7
01:10:00.000 : en:8
01:20:00.000 : en:9
01:30:00.000 : en:10


[/mediainfo]

TRACKERSEEDLEECHDOWNLOADED
udp://9.rarbg.me:2710/announce
udp://11.rarbg.me:80/announce
udp://10.rarbg.me:80/announce
udp://12.rarbg.me:80/announce
udp://9.rarbg.com:2710/announce
udp://open.demonii.com:1337/announce
udp://tracker.publicbt.com:80/announce
udp://tracker.istole.it:80/announce
udp://tracker.openbittorrent.com:80/announce
udp://tracker.istole.it:6969/announce
http://tracker.istole.it/announce
http://tracker.trackerfix.com/announce
udp://tracker.ccc.de:80/announce
http://tracker.thepiratebay.org/announce
udp://tracker-ccc.de:6969/announce
FILESIZE
RARBG.com.txt31 B
United.Passions.2014.720p.WEB-DL.H264.AC3-EVO.mkv3.25 GB
United.Passions.2014.720p.WEB-DL.H264.AC3-EVO.nfo2.26 KB

Related results

Date Title Size Files Seeds Leechs Category Health
Video(Movies) 1.38 GB 4 2014-07-10 0 1 25%
Video(Movies) 1.66 GB 3 2014-07-09 3 0 100%
Video(Movies) 705.81 MB 5 2014-07-11 1 0 25%
Video(Movies) 1.66 GB 4 2014-07-09 0 1 25%
Video(Movies) 2.38 GB 4 2014-07-09 0 1 25%

Login

Account deleting

Are you sure you want to delete your account?

WARNING: This action cannot be undone!!!