Login / Register
TeleSync

Transformers.Age.of.Extinction.2014.TS.XviD.MP3-RARBG

Category: Video
Type: Movies
Language: English
Movie Title: Transformers: Age of Extinction
Detected quality: TeleSync
Release date: 2014-06-26
Cast: Nicola Peltz,Mark Wahlberg,Stanley Tucci,Sophia Myles,Jack Reynor,Peter Cullen,Bingbing Li,Titus Welliver,Kelsey Grammer,T.J. Miller,Mark Ryan,Jason M. Varso,John Goodman,Robert Foxworth,Reno Wilson,Frank Welker,John DiMaggio,Patrick Bristow,Michael Bay
Genre: Action, Adventure, Sci-Fi
External Links: IMDB
Director: Michael Bay
Producers: Steven Spielberg,Michael Bay,Don Murphy,Ian Bryce,Allegra Clegg,Matthew Cohan,Tom DeSanto,Lorenzo di Bonaventura,K.C. Hodenfield,Michael Kase,Chiu Wah Lee,Mark Vahradian,Brian Goldner,Steven Spielberg,Regan Riskas
Writer: Ehren Kruger
IMDB rating: 5.9 (175,237 votes)
Summary: A mechanic and his daughter make a discovery that brings down Autobots and Decepticons - and a paranoid government official - on them.
Votes
Good: 0
Bad: 0
GoodBad
1
Seeders
0
Leechers

Added: 2014-07-12

Size: 2.35 GB

Health: 25%

Hash (Base16): D9C0AF41B4BEBF798311F2B67ED22A29A9F7C984

Hash (Base32): 3HAK6QNUX27XTAYR6K3H5URKFGU7PSME

DownloadBookmark
^

Transformers.Age.of.Extinction.2014.TS.XviD.MP3-RARBG

image

Title: Transformers: Age of Extinction (2014)
IMDB Rating: 6.4/10
Genres: Action , Adventure
Actors: Mark Wahlberg , Stanley Tucci , Kelsey Grammer , Nicola Peltz , Jack Reynor , Titus Welliver , Sophia Myles , Bingbing Li , T.J. Miller , James Bachman , Thomas Lennon , Charles Parnell , Erika Fong , Mike Collins , Geng Han
Runtime: 165
Year: 2014
Plot:
After the battle between the Autobots and Decepticons that leveled Chicago| humanity thinks that all alien robots are a threat. So Harold Attinger| a CIA agent|
establishes a unit whose sole purpose is to hunt down all of them. But it turns out that they are aided by another alien robot who is searching for Optimus Prime.
Cade Yeager| a "robotics expert"| buys an old truck and upon examining it| he thinks it's a Transformer. When he powers it up| he discovers it's Optimus. Later| men
from the unit show up looking for Optimus. He helps Yeager and his daughter escape but are pursued by the hunter. They escape and Yeager learns from technology he
took from the men that a technology magnate and defense contractor named Joshua Joyce is part of what's going on| so they go to find out what's going on.



Transformers.Age.of.Extinction.2014.TS.XviD.MP3-RARBG

http://www.imdb.com/title/tt2109248/

Screens:
image
image
image
image
image
image
image

Info:

[mediainfo]

Format : AVI
Format/Info : Audio Video Interleave
Format profile : OpenDML
File size : 2.35 GiB
Duration : 2h 37mn
Overall bit rate : 2 130 Kbps
Movie name : RARBG.COM - Transformers.Age.of.Extinction.2014.TS.XviD.MP3-RARBG
Writing library : VirtualDub build 35491/release
Comment : RARBG.COM - Transformers.Age.of.Extinction.2014.TS.XviD.MP3-RARBG

Video
ID : 0
Format : MPEG-4 Visual
Format profile : Simple@L5
Format settings, BVOP : No
Format settings, QPel : No
Format settings, GMC : No warppoints
Format settings, Matrix : Default (H.263)
Codec ID : XVID
Codec ID/Hint : XviD
Duration : 2h 37mn
Bit rate : 1 986 Kbps
Width : 720 pixels
Height : 342 pixels
Display aspect ratio : 2.105
Frame rate : 29.970 fps
Color space : YUV
Chroma subsampling : 4:2:0
Bit depth : 8 bits
Scan type : Progressive
Compression mode : Lossy
Bits/(Pixel*Frame) : 0.269
Stream size : 2.19 GiB (93%)
Writing library : Lavc55.61.100

Audio
ID : 1
Format : MPEG Audio
Format version : Version 1
Format profile : Layer 3
Mode : Joint stereo
Mode extension : MS Stereo
Codec ID : 55
Codec ID/Hint : MP3
Duration : 2h 37mn
Bit rate mode : Constant
Bit rate : 128 Kbps
Channel(s) : 2 channels
Sampling rate : 44.1 KHz
Compression mode : Lossy
Stream size : 144 MiB (6%)
Alignment : Aligned on interleaves
Interleave, duration : 26 ms (0.79 video frame)
Interleave, preload duration : 522 ms

[/mediainfo]

Notes:
Boosted contrast, brigthness, color sat.
Greetz to everyone :)

TRACKERSEEDLEECHDOWNLOADED
udp://9.rarbg.me:2710/announce
udp://11.rarbg.me:80/announce
udp://10.rarbg.me:80/announce
udp://12.rarbg.me:80/announce
udp://9.rarbg.com:2710/announce
udp://open.demonii.com:1337/announce
udp://tracker.publicbt.com:80/announce
udp://tracker.istole.it:80/announce
udp://tracker.openbittorrent.com:80/announce
udp://tracker.istole.it:6969/announce
http://tracker.istole.it/announce
http://tracker.trackerfix.com/announce
http://exodus.desync.com:6969/announce
udp://tracker.ccc.de:80/announce
http://tracker.thepiratebay.org/announce
udp://tracker-ccc.de:6969/announce
FILESIZE
Transformers.Age.of.Extinction.2014.TS.XviD.MP3-RARBG.avi2.35 GB
RARBG.com.avi1.14 MB
Transformers.Age.of.Extinction.2014.TS.XviD.MP3-RARBG.nfo3.24 KB
RARBG.com.txt31 B

Related results

Date Title Size Files Seeds Leechs Category Health
Video(Movies) 2.26 GB 6 2014-06-26 0 1 25%
Video(Movies) 1.01 GB 1 2014-07-12 1 0 25%
Video(Movies) 3.03 GB 4 2014-07-16 1 0 25%
Video(Movies) 2.6 GB 6 2014-07-14 1 0 25%

Login

Account deleting

Are you sure you want to delete your account?

WARNING: This action cannot be undone!!!