Login / Register
HDRiP

Rise.of.the.Planet.of.the.Apes.2011.720p.BRRip.XviD.AC3-RARBG

Category: Video
Type: Movies
Movie Title: Rise of the Planet of the Apes
Detected quality: HDRiP
Release date: 2011-08-04
Cast: John Lithgow,Brian Cox,Ryan Jefferson Booth,Jay Caputo,Jay Caputo,Richard Darwin,Mike Dopud,Rufus Dorsey,Tom Felton,James Franco,Freida Pinto,David Oyelowo,Tyler Labine,Jamie Harris,Hector Johnson,Ty Olsson,Madison Bell,Makena Joy,Jeb Beach,Joey Roche
Genre: Action, Drama, Sci-Fi
External Links: IMDB
Director: Rupert Wyatt
Producers: Peter Chernin,Thomas M. Hammel,Amanda Silver,Rick Jaffa,Kurt Williams,Dylan Clark,Mike Larocca
Writers: Pierre Boulle,Amanda Silver,Rick Jaffa
Duration: 105
IMDB rating: 7.6 (333,113 votes)
Summary: A substance, designed to help the brain repair itself, gives rise to a super-intelligent chimp who leads an ape uprising.
Votes
Good: 0
Bad: 0
GoodBad
1
Seeders
0
Leechers

Added: 2014-07-14

Size: 3.05 GB

Health: 25%

Hash (Base16): F4BAA0B03CCAC0A6EE327874ED6431F39C8A115F

Hash (Base32): 6S5KBMB4ZLAKN3RSPB2O2ZBR6OOIUEK7

DownloadBookmark
^

Rise.of.the.Planet.of.the.Apes.2011.720p.BRRip.XviD.AC3-RARBG

image

Title: Rise of the Planet of the Apes (2011)
IMDB Rating: 7.5/10
Genres: Action , Drama , Thriller
Actors: Andy Serkis , Karin Konoval , Terry Notary , Richard Ridings , Christopher Gordon , Devyn Dalton , Jay Caputo , James Franco , Freida Pinto , John Lithgow , Brian Cox , Tom Felton , David Oyelowo , Tyler Labine , Jamie Harris
Runtime: 105
Year: 2011
Plot:
At the story's heart is Caesar ()| a chimpanzee who gains human-like intelligence and emotions from an
experimental drug. Raised like a child by the drug's creator| Will Rodman () and a primatologist Caroline
Aranha ()| Caesar ultimately finds himself taken from the humans he loves and imprisoned in an ape
sanctuary in San Bruno. Seeking justice for his fellow inmates| Caesar gives the fellow apes the same drug that he inherited. He then assembles a simian army and
escapes the sanctuary - putting man and ape on a collision course that could change the planet forever. [mediainfo]


Format : AVI
Format/Info : Audio Video Interleave
Format profile : OpenDML
File size : 3.05 GiB
Duration : 1h 44mn
Overall bit rate : 4 158 Kbps
Writing application : VirtualDubMod 1.5.10.2 (build 2540/release)
Writing library : VirtualDubMod build 2540/release

Video
ID : 0
Format : MPEG-4 Visual
Format profile : Advanced [email protected]
Format settings, BVOP : 2
Format settings, QPel : No
Format settings, GMC : No warppoints
Format settings, Matrix : Default (H.263)
Muxing mode : Packed bitstream
Codec ID : XVID
Codec ID/Hint : XviD
Duration : 1h 44mn
Bit rate : 3 700 Kbps
Width : 1 280 pixels
Height : 544 pixels
Display aspect ratio : 2.35:1
Frame rate : 23.976 fps
Color space : YUV
Chroma subsampling : 4:2:0
Bit depth : 8 bits
Scan type : Progressive
Compression mode : Lossy
Bits/(Pixel*Frame) : 0.222
Stream size : 2.71 GiB (89%)
Writing library : XviD 1.2.1 (UTC 2008-12-04)

Audio
ID : 1
Format : AC-3
Format/Info : Audio Coding 3
Mode extension : CM (complete main)
Format settings, Endianness : Big
Codec ID : 2000
Duration : 1h 44mn
Bit rate mode : Constant
Bit rate : 448 Kbps
Channel(s) : 6 channels
Channel positions : Front: L C R, Side: L R, LFE
Sampling rate : 48.0 KHz
Bit depth : 16 bits
Compression mode : Lossy
Stream size : 336 MiB (11%)
Alignment : Split accross interleaves
Interleave, duration : 42 ms (1.00 video frame)
Interleave, preload duration : 500 ms

[/mediainfo]

TRACKERSEEDLEECHDOWNLOADED
udp://tracker.coppersurfer.tk:6969/announce
udp://9.rarbg.me:2710/announce
udp://11.rarbg.me:80/announce
udp://10.rarbg.me:80/announce
udp://12.rarbg.me:80/announce
udp://9.rarbg.com:2710/announce
udp://open.demonii.com:1337/announce
udp://tracker.publicbt.com:80/announce
udp://tracker.istole.it:80/announce
udp://tracker.openbittorrent.com:80/announce
udp://tracker.istole.it:6969/announce
http://tracker.istole.it/announce
http://tracker.trackerfix.com/announce
udp://tracker.ccc.de:80/announce
http://tracker.thepiratebay.org/announce
udp://tracker-ccc.de:6969/announce
FILESIZE
RARBG.com.txt31 B
Rise.of.the.Planet.of.the.Apes.2011.720p.BRRip.XviD.AC3-RARBG.avi3.05 GB

Related results

Date Title Size Files Seeds Leechs Category Health
Video(Movies) 3.48 GB 2 2014-07-13 0 1 25%
Video(Movies) 3.25 GB 2 2014-07-13 1 1 25%
Video(Movies) 2.83 GB 2 2014-07-13 0 1 25%
Video(Movies) 2.52 GB 2 2014-07-13 0 1 25%
Video(Movies) 2.75 GB 2 2014-07-13 1 0 25%
Video(Movies) 1.87 GB 5 2014-11-10 1 1 25%
Video(Movies) 3.29 GB 4 2014-11-11 1 0 25%
Video(Movies) 1.07 GB 4 2014-11-21 0 1 25%
Video(Movies) 1.37 GB 4 2014-12-14 0 1 25%

Login

Account deleting

Are you sure you want to delete your account?

WARNING: This action cannot be undone!!!