Login / Register
HDRiP

Planet.of.the.Apes.2001.720p.BRRip.XviD.AC3-RARBG

Category: Video
Type: Movies
Movie Title: Planet of the Apes
Detected quality: HDRiP
Release date: 2001-07-26
Cast: Charlton Heston,Mark Wahlberg,Helena Bonham Carter,Tim Roth,Rick Baker,Kris Kristofferson,David Warner,Michael Clarke Duncan,Cary-Hiroyuki Tagawa,Estella Warren,John Alexander,Erick Avari,Todd Babcock,Rick Baker,Chad Bannon,Howard Berger,Spitfire Brown
Genre: Action, Adventure, Sci-Fi
External Links: IMDB
Director: Tim Burton
Producers: Ralph Winter,Richard D. Zanuck,Ross Fanger,Katterli Frauenfelder,Iain Smith
Writers: Pierre Boulle,William Broyles Jr.,Lawrence Konner,Mark Rosenthal
Duration: 119
IMDB rating: 5.7 (161,781 votes)
Summary: It is the year 2029: Astronaut Leo Davidson boards a pod cruiser on a Space Station for a "routine" reconnaissance mission. But an abrupt detour through a space time wormhole lands him on a strange planet where talking apes rule over the human race. With the help of a sympathetic chimpanzee activist named Ari and a small band of human rebels, Leo leads the effort to evade the advancing Gorilla Army led by General Thade and his most trusted warrior Attar. Now the race is on to reach a sacred temple within the planet's Forbidden Zone to discover the shocking secrets of mankind's past - and the key to its future.
Votes
Good: 0
Bad: 0
GoodBad
0
Seeders
1
Leechers

Added: 2014-07-14

Size: 3.48 GB

Health: 25%

Hash (Base16): 68869320052E2A8EBC0110712018778FE06DA0C0

Hash (Base32): NCDJGIAFFYVI5PABCBYSAGDXR7QG3IGA

DownloadBookmark
^

Planet.of.the.Apes.2001.720p.BRRip.XviD.AC3-RARBG

image

Title: Planet of the Apes (2001)
IMDB Rating: 5.6/10
Genres: Action , Adventure , Thriller
Actors: Mark Wahlberg , Tim Roth , Helena Bonham Carter , Michael Clarke Duncan , Paul Giamatti , Estella Warren , Cary-Hiroyuki Tagawa , David Warner , Kris Kristofferson , Erick Avari , Lucas Elliot Eberl , Evan Parke , Glenn Shadix , Freda Foh Shen , Chris Ellis
Runtime: 119
Year: 2001
Plot:
It is the year 2029: Astronaut Leo Davidson boards a pod cruiser on a Space Station for a "routine" reconnaissance mission. But an abrupt detour through a space time
wormhole lands him on a strange planet where talking apes rule over the human race. With the help of a sympathetic chimpanzee activist named Ari and a small band of
human rebels| Leo leads the effort to evade the advancing Gorilla Army led by General Thade and his most trusted warrior Attar. Now the race is on to reach a sacred
temple within the planet's Forbidden Zone to discover the shocking secrets of mankind's past - and the key to its future. [mediainfo]


Format : AVI
Format/Info : Audio Video Interleave
Format profile : OpenDML
File size : 3.48 GiB
Duration : 1h 59mn
Overall bit rate : 4 158 Kbps
Writing application : VirtualDubMod 1.5.10.2 (build 2540/release)
Writing library : VirtualDubMod build 2540/release

Video
ID : 0
Format : MPEG-4 Visual
Format profile : Advanced Simple@L5
Format settings, BVOP : 2
Format settings, QPel : No
Format settings, GMC : No warppoints
Format settings, Matrix : Default (H.263)
Muxing mode : Packed bitstream
Codec ID : XVID
Codec ID/Hint : XviD
Duration : 1h 59mn
Bit rate : 3 700 Kbps
Width : 1 280 pixels
Height : 544 pixels
Display aspect ratio : 2.35:1
Frame rate : 23.976 fps
Color space : YUV
Chroma subsampling : 4:2:0
Bit depth : 8 bits
Scan type : Progressive
Compression mode : Lossy
Bits/(Pixel*Frame) : 0.222
Stream size : 3.10 GiB (89%)
Writing library : XviD 1.2.1 (UTC 2008-12-04)

Audio
ID : 1
Format : AC-3
Format/Info : Audio Coding 3
Mode extension : CM (complete main)
Format settings, Endianness : Big
Codec ID : 2000
Duration : 1h 59mn
Bit rate mode : Constant
Bit rate : 448 Kbps
Channel(s) : 6 channels
Channel positions : Front: L C R, Side: L R, LFE
Sampling rate : 48.0 KHz
Bit depth : 16 bits
Compression mode : Lossy
Stream size : 384 MiB (11%)
Alignment : Split accross interleaves
Interleave, duration : 42 ms (1.00 video frame)
Interleave, preload duration : 500 ms


[/mediainfo]

TRACKERSEEDLEECHDOWNLOADED
udp://tracker.coppersurfer.tk:6969/announce
http://mgtracker.org:2710/announce
udp://9.rarbg.me:2710/announce
udp://11.rarbg.me:80/announce
udp://10.rarbg.me:80/announce
udp://12.rarbg.me:80/announce
udp://9.rarbg.com:2710/announce
udp://open.demonii.com:1337/announce
udp://tracker.publicbt.com:80/announce
udp://tracker.istole.it:80/announce
udp://tracker.openbittorrent.com:80/announce
udp://tracker.istole.it:6969/announce
http://tracker.istole.it/announce
http://tracker.trackerfix.com/announce
udp://tracker.ccc.de:80/announce
http://tracker.thepiratebay.org/announce
udp://tracker-ccc.de:6969/announce
FILESIZE
Planet.of.the.Apes.2001.720p.BRRip.XviD.AC3-RARBG.avi3.48 GB
RARBG.com.txt31 B

Related results

Date Title Size Files Seeds Leechs Category Health
Video(Movies) 3.05 GB 2 2014-07-13 0 1 25%
Video(Movies) 3.25 GB 2 2014-07-13 0 1 25%
Video(Movies) 2.83 GB 2 2014-07-13 0 1 25%
Video(Movies) 2.52 GB 2 2014-07-13 0 1 25%
Video(Movies) 2.75 GB 2 2014-07-13 0 1 25%
Video(Movies) 1.87 GB 5 2014-11-10 2 0 25%
Video(Movies) 3.29 GB 4 2014-11-11 1 0 25%
Video(Movies) 1.07 GB 4 2014-11-21 0 1 25%
Video(Movies) 1.37 GB 4 2014-12-14 0 1 25%

Login

Account deleting

Are you sure you want to delete your account?

WARNING: This action cannot be undone!!!