Login / Register
HDRiP

Planet.Of.The.Apes.1968.720p.BRRip.XviD.AC3-RARBG

Category: Video
Type: Movies
Movie Title: Planet of the Apes
Detected quality: HDRiP
Cast: Charlton Heston,Kim Hunter,Roddy McDowall,Army Archerd,James Bacon,Erlynn Mary Botelho,Priscilla Boyd,Eldon Burke,Jeff Burton,Norman Burton,David Chow,Billy Curtis,Billy Curtis,James Daly,Frank Delfino,Buddy Douglas,Maurice Evans,James Whitmore
Genre: Adventure, Sci-Fi
External Links: IMDB
Director: Franklin J. Schaffner
Producers: Mort Abrahams,Mort Abrahams,Arthur P. Jacobs
Writers: Pierre Boulle,Michael Wilson,Rod Serling
Duration: 112
IMDB rating: 8.0 (122,692 votes)
Summary: An astronaut crew crash lands on a planet in the distant future where intelligent talking apes are the dominant species, and humans are the oppressed and enslaved.
Votes
Good: 0
Bad: 0
GoodBad
1
Seeders
0
Leechers

Added: 2014-07-14

Size: 3.25 GB

Health: 25%

Hash (Base16): C7D20981786659ECB5DA9A23D7C6C97D988A5717

Hash (Base32): Y7JATALYMZM6ZNO2TIR5PRWJPWMIUVYX

DownloadBookmark
^

Planet.Of.The.Apes.1968.720p.BRRip.XviD.AC3-RARBG

image

Title: Planet of the Apes (1968)
IMDB Rating: 7.9/10
Genres: Adventure , Mystery
Actors: Charlton Heston , Roddy McDowall , Kim Hunter , Maurice Evans , James Whitmore , James Daly , Linda Harrison , Robert Gunner , Lou Wagner , Woodrow Parfrey , Jeff Burton , Buck Kartalian , Norman Burton , Wright King , Paul Lambert
Runtime: 112
Year: 1968
Plot:
Taylor and two other astronauts come out of deep hibernation to find that their ship has crashed. Escaping with little more than clothes they find that they have
landed on a planet where men are pre-lingual and uncivilized while apes have learned speech and technology. Taylor is captured and taken to the city of the apes
after damaging his throat so that he is silent and cannot communicate with the apes. [mediainfo]


Format : AVI
Format/Info : Audio Video Interleave
Format profile : OpenDML
File size : 3.25 GiB
Duration : 1h 52mn
Overall bit rate : 4 156 Kbps
Writing application : VirtualDubMod 1.5.10.2 (build 2540/release)
Writing library : VirtualDubMod build 2540/release

Video
ID : 0
Format : MPEG-4 Visual
Format profile : Advanced Simple@L5
Format settings, BVOP : 2
Format settings, QPel : No
Format settings, GMC : No warppoints
Format settings, Matrix : Default (H.263)
Muxing mode : Packed bitstream
Codec ID : XVID
Codec ID/Hint : XviD
Duration : 1h 52mn
Bit rate : 3 699 Kbps
Width : 1 280 pixels
Height : 544 pixels
Display aspect ratio : 2.35:1
Frame rate : 23.976 fps
Color space : YUV
Chroma subsampling : 4:2:0
Bit depth : 8 bits
Scan type : Progressive
Compression mode : Lossy
Bits/(Pixel*Frame) : 0.222
Stream size : 2.89 GiB (89%)
Writing library : XviD 1.2.1 (UTC 2008-12-04)

Audio
ID : 1
Format : AC-3
Format/Info : Audio Coding 3
Mode extension : CM (complete main)
Format settings, Endianness : Big
Codec ID : 2000
Duration : 1h 52mn
Bit rate mode : Constant
Bit rate : 448 Kbps
Channel(s) : 6 channels
Channel positions : Front: L C R, Side: L R, LFE
Sampling rate : 48.0 KHz
Bit depth : 16 bits
Compression mode : Lossy
Stream size : 359 MiB (11%)
Alignment : Split accross interleaves
Interleave, duration : 42 ms (1.00 video frame)
Interleave, preload duration : 500 ms

[/mediainfo]

TRACKERSEEDLEECHDOWNLOADED
udp://tracker.coppersurfer.tk:6969/announce100
http://mgtracker.org:2710/announce002
udp://9.rarbg.me:2710/announce
udp://11.rarbg.me:80/announce
udp://10.rarbg.me:80/announce
udp://12.rarbg.me:80/announce
udp://9.rarbg.com:2710/announce
udp://open.demonii.com:1337/announce
udp://tracker.publicbt.com:80/announce
udp://tracker.istole.it:80/announce
udp://tracker.openbittorrent.com:80/announce
udp://tracker.istole.it:6969/announce
http://tracker.istole.it/announce
http://tracker.trackerfix.com/announce
http://9.rarbg.com:2710/announce
udp://tracker.ccc.de:80/announce
http://tracker.thepiratebay.org/announce
http://eddie4.nl:6969/announce
udp://tracker-ccc.de:6969/announce
FILESIZE
Planet.Of.The.Apes.1968.720p.BRRip.XviD.AC3-RARBG.avi3.25 GB
RARBG.com.txt31 B

Related results

Date Title Size Files Seeds Leechs Category Health
Video(Movies) 3.05 GB 2 2014-07-13 0 1 25%
Video(Movies) 3.48 GB 2 2014-07-13 0 1 25%
Video(Movies) 2.83 GB 2 2014-07-13 0 1 25%
Video(Movies) 2.52 GB 2 2014-07-13 1 0 25%
Video(Movies) 2.75 GB 2 2014-07-13 0 1 25%
Video(Movies) 1.87 GB 5 2014-11-10 1 0 25%
Video(Movies) 3.29 GB 4 2014-11-11 1 0 25%
Video(Movies) 1.07 GB 4 2014-11-21 0 1 25%
Video(Movies) 1.37 GB 4 2014-12-14 0 1 25%

Login

Account deleting

Are you sure you want to delete your account?

WARNING: This action cannot be undone!!!