Login / Register
HDRiP

Escape.from.the.Planet.of.the.Apes.1971.720p.BRRip.XviD.AC3-RARBG

Category: Video
Type: Movies
Movie Title: Escape from the Planet of the Apes
Detected quality: HDRiP
Release date: 1971-05-20
Cast: Sal Mineo,Eric Braeden,Kim Hunter,Roddy McDowall,Ricardo Montalban,M. Emmet Walsh,John Alderman,Army Archerd,James Bacon,Bill Bonds,Paul Bradley,Karl Bruck,Norman Burton,Sam Chew Jr.,Bradford Dillman,Walker Edmiston,Donald Elson,Jason Evers,Jason Evers
Genre: Action, Sci-Fi
External Links: IMDB
Director: Don Taylor
Producers: Frank Capra Jr.,Arthur P. Jacobs
Writers: Pierre Boulle,Paul Dehn
Duration: 98
IMDB rating: 6.2 (19,494 votes)
Summary: The world is shocked by the appearance of three talking chimpanzees, who arrived mysteriously in a U.S. spacecraft. They become the toast of society; but one man believes them to be a threat to the human race.
Votes
Good: 0
Bad: 0
GoodBad
0
Seeders
1
Leechers

Added: 2014-07-14

Size: 2.83 GB

Health: 25%

Hash (Base16): 563F0092752A81A13D454E51A187529FE9F0FB17

Hash (Base32): KY7QBETVFKA2CPKFJZI2DB2ST7U7B6YX

DownloadBookmark
DOWNLOAD LOCATIONS
http://rarbg.to/torrent/xkjcun6
http://bitsnoop.com/escape-from-the-planet-of-the-apes-q66064179.html
http://thepiratebay.se/torrent/10554725/Escape.from.the.Planet.of.the.Apes.1971.720p.BRRip.XviD.AC3-RARB
http://isohunt.to/torrent_details/12094636/Escape-from-the-Planet-of-the-Apes-1971-720p-BRRip-XviD-AC3-RARBG
http://torrenthound.to/hash/563f0092752a81a13d454e51a187529fe9f0fb17/torrent-info/Escape.from.the.Planet.of.the.Apes.1971.720p.BRRip.XviD.AC3-RARB#files
http://www.monova.org/torrent/8274360/EscapefromthePlanetoftheApes1971720pBRRipXviDAC3-RARB.html
http://www.torrents.net/torrent/5222546/Escape.from.the.Planet.of.the.Apes.1971.720p.BRRip.XviD.AC3-RARBG/
http://www.torlock.com/torrent/3055156/escape-from-the-planet-of-the-apes-1971-720p-brrip-bg.html
http://www.limetorrents.cc/Escape-from-the-Planet-of-the-Apes-1971-720p-BRRip-XviD-AC3-RARB-torrent-4798480.html
http://fastpiratebay.eu/thepiratebay.se/torrent/10554725/Escape.from.the.Planet.of.the.Apes.1971.720p.BRRip.XviD.AC3-RARB
http://www.torrentreactor.net/torrents/25659807/Escape-from-the-Planet-of-the-Apes-1971-720p-BRRip-XviD-AC3-RARBG
http://www.seedpeer.me/details/8221199/Escape.from.the.Planet.of.the.Apes.1971.720p.BRRip.XviD.AC3-RARB.html
http://www.torrentdownloads.me/torrent/1658620344/Escape+from+the+Planet+of+the+Apes+1971+720p+BRRip+XviD+AC3-RARBG
http://www.torrentfunk.com/torrent/8914651/escape-from-the-planet-of-the-apes-1971-720p-brrip-bg.html
http://torrentproject.se/563f0092752a81a13d454e51a187529fe9f0fb17/Escape-from-the-Planet-of-the-Apes-(1971)-720p-BRRip-XviD-AC3-RARBG-torrent.html
^

Escape.from.the.Planet.of.the.Apes.1971.720p.BRRip.XviD.AC3-RARBG

image

Title: Escape from the Planet of the Apes (1971)
IMDB Rating: 6.2/10
Genres: Action
Actors: Roddy McDowall , Kim Hunter , Bradford Dillman , Natalie Trundy , Eric Braeden , Ricardo Montalban , William Windom , Sal Mineo , Albert Salmi , Jason Evers , John Randolph , Harry Lauter , M. Emmet Walsh , Roy Glenn , Peter Forster
Runtime: 98
Year: 1971
Plot:
Following the events in "Beneath the Planet of the Apes"| Cornelius and Zira flee back through time to 20th Century Los Angeles| where they face fear and persecution
similar to what Taylor and Brent suffered in the future| and discover the origins of the stream of events that will shape their world. [mediainfo]


Format : AVI
Format/Info : Audio Video Interleave
Format profile : OpenDML
File size : 2.83 GiB
Duration : 1h 37mn
Overall bit rate : 4 158 Kbps
Writing application : VirtualDubMod 1.5.10.2 (build 2540/release)
Writing library : VirtualDubMod build 2540/release

Video
ID : 0
Format : MPEG-4 Visual
Format profile : Advanced Simple@L5
Format settings, BVOP : 2
Format settings, QPel : No
Format settings, GMC : No warppoints
Format settings, Matrix : Default (H.263)
Muxing mode : Packed bitstream
Codec ID : XVID
Codec ID/Hint : XviD
Duration : 1h 37mn
Bit rate : 3 700 Kbps
Width : 1 280 pixels
Height : 544 pixels
Display aspect ratio : 2.35:1
Frame rate : 23.976 fps
Color space : YUV
Chroma subsampling : 4:2:0
Bit depth : 8 bits
Scan type : Progressive
Compression mode : Lossy
Bits/(Pixel*Frame) : 0.222
Stream size : 2.52 GiB (89%)
Writing library : XviD 1.2.1 (UTC 2008-12-04)

Audio
ID : 1
Format : AC-3
Format/Info : Audio Coding 3
Mode extension : CM (complete main)
Format settings, Endianness : Big
Codec ID : 2000
Duration : 1h 37mn
Bit rate mode : Constant
Bit rate : 448 Kbps
Channel(s) : 6 channels
Channel positions : Front: L C R, Side: L R, LFE
Sampling rate : 48.0 KHz
Bit depth : 16 bits
Compression mode : Lossy
Stream size : 313 MiB (11%)
Alignment : Split accross interleaves
Interleave, duration : 42 ms (1.00 video frame)
Interleave, preload duration : 500 ms

[/mediainfo]

TRACKERSEEDLEECHDOWNLOADED
udp://tracker.coppersurfer.tk:6969/announce
udp://9.rarbg.me:2710/announce
udp://11.rarbg.me:80/announce
udp://10.rarbg.me:80/announce
udp://12.rarbg.me:80/announce
udp://9.rarbg.com:2710/announce
udp://open.demonii.com:1337/announce
udp://tracker.publicbt.com:80/announce
udp://tracker.istole.it:80/announce
udp://tracker.openbittorrent.com:80/announce
udp://tracker.istole.it:6969/announce
http://tracker.istole.it/announce
http://tracker.trackerfix.com/announce
http://9.rarbg.com:2710/announce
udp://tracker.ccc.de:80/announce
http://tracker.thepiratebay.org/announce
http://torrent.gresille.org/announce
udp://tracker-ccc.de:6969/announce
http://www.les-renseignements-genereux.org:80/announce
FILESIZE
Escape.from.the.Planet.of.the.Apes.1971.720p.BRRip.XviD.AC3-RARBG.avi2.83 GB
RARBG.com.txt31 B

Login

Account deleting

Are you sure you want to delete your account?

WARNING: This action cannot be undone!!!