Login / Register
HDRiP

Conquest.Of.the.Planet.of.the.Apes.1972.720p.BRRip.XviD.AC3-RARBG

Category: Video
Type: Movies
Movie Title: Conquest of the Planet of the Apes
Detected quality: HDRiP
Release date: 1972-06-28
Cast: Roddy McDowall,Ricardo Montalban,James Bacon,Rayford Barnes,John Dennis,William Bryant,Sam Chew Jr.,David Chow,Paul Comi,Severn Darden,John Dennis,Erin Fleming,Don Murray,Natalie Trundy,Hari Rhodes,John Randolph,H.M. Wynant,Gordon Jump,Lou Wagner
Genre: Action, Sci-Fi
External Links: IMDB
Director: J. Lee Thompson
Producers: Frank Capra Jr.,Arthur P. Jacobs
Writers: Pierre Boulle,Paul Dehn
Duration: 88
IMDB rating: 6.0 (19,936 votes)
Summary: In a futuristic world that has embraced ape slavery, Caesar, the son of the late simians Cornelius and Zira, surfaces after almost twenty years of hiding out from the authorities, and prepares for a slave revolt against humanity.
Votes
Good: 0
Bad: 0
GoodBad
0
Seeders
1
Leechers

Added: 2014-07-14

Size: 2.52 GB

Health: 25%

Hash (Base16): 82BA22B31B035994121EA725EC5706E491441B87

Hash (Base32): QK5CFMY3ANMZIEQ6U4S6YVYG4SIUIG4H

DownloadBookmark
DOWNLOAD LOCATIONS
http://rarbg.to/torrent/u9flq81
http://bitsnoop.com/conquest-of-the-planet-of-the-apes-q66064178.html
http://thepiratebay.se/torrent/10554721/Conquest.Of.the.Planet.of.the.Apes.1972.720p.BRRip.XviD.AC3-RARB
http://isohunt.to/torrent_details/12094635/Conquest-Of-the-Planet-of-the-Apes-1972-720p-BRRip-XviD-AC3-RARBG
http://torrenthound.to/hash/82ba22b31b035994121ea725ec5706e491441b87/torrent-info/Conquest.Of.the.Planet.of.the.Apes.1972.720p.BRRip.XviD.AC3-RARB
http://www.monova.org/torrent/8274362/ConquestOfthePlanetoftheApes1972720pBRRipXviDAC3-RARB.html
http://www.torrents.net/torrent/5222547/Conquest.Of.the.Planet.of.the.Apes.1972.720p.BRRip.XviD.AC3-RARBG/
http://www.torlock.com/torrent/3055155/conquest-of-the-planet-of-the-apes-1972-720p-brrip-bg.html
http://www.limetorrents.cc/Conquest-Of-the-Planet-of-the-Apes-1972-720p-BRRip-XviD-AC3-RARB-torrent-4798482.html
http://fastpiratebay.eu/thepiratebay.se/torrent/10554721/Conquest.Of.the.Planet.of.the.Apes.1972.720p.BRRip.XviD.AC3-RARB
http://www.torrentreactor.net/torrents/25659808/Conquest-Of-the-Planet-of-the-Apes-1972-720p-BRRip-XviD-AC3-RARBG
http://www.seedpeer.me/details/8221800/Conquest.Of.the.Planet.of.the.Apes.1972.720p.BRRip.XviD.AC3-RARB.html
http://www.torrentzap.com/torrent/2421608/Conquest+Of+the+Planet+of+the+Apes+1972+720p+BRRip+XviD+AC3-RARB
http://www.torrentdownloads.me/torrent/1658620460/Conquest+Of+the+Planet+of+the+Apes+1972+720p+BRRip+XviD+AC3-RARBG
http://www.torrentfunk.com/torrent/8914644/conquest-of-the-planet-of-the-apes-1972-720p-brrip-bg.html
^

Conquest.Of.the.Planet.of.the.Apes.1972.720p.BRRip.XviD.AC3-RARBG

image

Title: Conquest of the Planet of the Apes (1972)
IMDB Rating: 5.9/10
Genres: Action
Actors: Roddy McDowall , Don Murray , Natalie Trundy , Hari Rhodes , Severn Darden , Lou Wagner , John Randolph , Asa Maynor , H.M. Wynant , David Chow , Buck Kartalian , John Dennis , Paul Comi , Gordon Jump , Dick Spangler
Runtime: 88
Year: 1972
Plot:
Cornelius and Zira's son Caesar leads apes to revolution in this installment of the apes saga. Dogs and cats have been wiped out by a plague and now apes are
household pets that are treated like slaves. Caesar has the intelligence to fight this oppression. [mediainfo]


Format : AVI
Format/Info : Audio Video Interleave
Format profile : OpenDML
File size : 2.52 GiB
Duration : 1h 26mn
Overall bit rate : 4 159 Kbps
Writing application : VirtualDubMod 1.5.10.2 (build 2540/release)
Writing library : VirtualDubMod build 2540/release

Video
ID : 0
Format : MPEG-4 Visual
Format profile : Advanced [email protected]
Format settings, BVOP : 2
Format settings, QPel : No
Format settings, GMC : No warppoints
Format settings, Matrix : Default (H.263)
Muxing mode : Packed bitstream
Codec ID : XVID
Codec ID/Hint : XviD
Duration : 1h 26mn
Bit rate : 3 700 Kbps
Width : 1 280 pixels
Height : 544 pixels
Display aspect ratio : 2.35:1
Frame rate : 23.976 fps
Color space : YUV
Chroma subsampling : 4:2:0
Bit depth : 8 bits
Scan type : Progressive
Compression mode : Lossy
Bits/(Pixel*Frame) : 0.222
Stream size : 2.24 GiB (89%)
Writing library : XviD 1.2.1 (UTC 2008-12-04)

Audio
ID : 1
Format : AC-3
Format/Info : Audio Coding 3
Mode extension : CM (complete main)
Format settings, Endianness : Big
Codec ID : 2000
Duration : 1h 26mn
Bit rate mode : Constant
Bit rate : 448 Kbps
Channel(s) : 6 channels
Channel positions : Front: L C R, Side: L R, LFE
Sampling rate : 48.0 KHz
Bit depth : 16 bits
Compression mode : Lossy
Stream size : 278 MiB (11%)
Alignment : Split accross interleaves
Interleave, duration : 42 ms (1.00 video frame)
Interleave, preload duration : 500 ms

[/mediainfo]

TRACKERSEEDLEECHDOWNLOADED
http://mgtracker.org:2710/announce
udp://9.rarbg.me:2710/announce
udp://11.rarbg.me:80/announce
udp://10.rarbg.me:80/announce
udp://12.rarbg.me:80/announce
udp://9.rarbg.com:2710/announce
udp://open.demonii.com:1337/announce
udp://tracker.publicbt.com:80/announce
udp://tracker.istole.it:80/announce
udp://tracker.openbittorrent.com:80/announce
udp://tracker.istole.it:6969/announce
http://tracker.istole.it/announce
http://tracker.leechers-paradise.org:6969/announce
http://bt.careland.com.cn:6969/announce
http://tracker.trackerfix.com/announce
http://9.rarbg.com:2710/announce
udp://tracker.ccc.de:80/announce
http://tracker.thepiratebay.org/announce
http://shadowshq.eddie4.nl:6969/announce
http://shadowshq.yi.org:6969/announce
http://www.eddie4.nl:6969/announce
http://eddie4.nl:6969/announce
udp://tracker-ccc.de:6969/announce
FILESIZE
Conquest.Of.the.Planet.of.the.Apes.1972.720p.BRRip.XviD.AC3-RARBG.avi2.52 GB
RARBG.com.txt31 B

Login

Account deleting

Are you sure you want to delete your account?

WARNING: This action cannot be undone!!!