Login / Register
HDRiP

Beneath.the.Planet.of.the.Apes.1970.720p.BRRip.XviD.AC3-RARBG

Category: Video
Type: Movies
Movie Title: Beneath the Planet of the Apes
Detected quality: HDRiP
Release date: 1970-05-25
Cast: Charlton Heston,Kim Hunter,James Franciscus,Tod Andrews,Army Archerd,James Bacon,Stan Barrett,Angelina Bauer,Erlynn Mary Botelho,Dick Bullock,Victor Buono,Eldon Burke,Don Pedro Colley,Jeff Corey,Maurice Evans,Bruce Fleischer,Paul Frees,Linda Harrison
Genre: Action, Adventure, Sci-Fi
External Links: IMDB
Director: Ted Post
Producers: Mort Abrahams,Mort Abrahams,Arthur P. Jacobs
Writers: Mort Abrahams,Mort Abrahams,Pierre Boulle,Paul Dehn
Duration: 95
IMDB rating: 6.1 (27,848 votes)
Summary: The sole survivor of an interplanetary rescue mission searches for the only survivor of the previous expedition. He discovers a planet ruled by apes and an underground city run by telepathic humans.
Votes
Good: 0
Bad: 0
GoodBad
0
Seeders
1
Leechers

Added: 2014-07-14

Size: 2.75 GB

Health: 25%

Hash (Base16): 0105C60D3D0D07BE2E13CF43EA9214D4C57B0BDC

Hash (Base32): AEC4MDJ5BUD34LQTZ5B6VEQU2TCXWC64

DownloadBookmark
^

Beneath.the.Planet.of.the.Apes.1970.720p.BRRip.XviD.AC3-RARBG

image

Title: Beneath the Planet of the Apes (1970)
IMDB Rating: 6.0/10
Genres: Action , Adventure
Actors: James Franciscus , Kim Hunter , Maurice Evans , Linda Harrison , Paul Richards , Victor Buono , James Gregory , Jeff Corey , Natalie Trundy , Thomas Gomez , David Watson , Don Pedro Colley , Tod Andrews , Gregory Sierra , Eldon Burke
Runtime: 95
Year: 1970
Plot:
Astronaut Brent is sent to rescue Taylor but crash lands on the Planet of the Apes| just like Taylor did in the original film. Taylor has disappeared into the
Forbidden Zone so Brent and Nova try to follow and find him. He discovers a cult of humans that fear the Apes' latest military movements and finds himself in the
middle. Tension mounts to a climactic battle between ape and man deep in the bowels of the planet. Sequel to "Planet of the Apes." Film 2 of the series of 5
[mediainfo]


Format : AVI
Format/Info : Audio Video Interleave
Format profile : OpenDML
File size : 2.75 GiB
Duration : 1h 34mn
Overall bit rate : 4 159 Kbps
Writing application : VirtualDubMod 1.5.10.2 (build 2540/release)
Writing library : VirtualDubMod build 2540/release

Video
ID : 0
Format : MPEG-4 Visual
Format profile : Advanced Simple@L5
Format settings, BVOP : 2
Format settings, QPel : No
Format settings, GMC : No warppoints
Format settings, Matrix : Default (H.263)
Muxing mode : Packed bitstream
Codec ID : XVID
Codec ID/Hint : XviD
Duration : 1h 34mn
Bit rate : 3 700 Kbps
Width : 1 280 pixels
Height : 544 pixels
Display aspect ratio : 2.35:1
Frame rate : 23.976 fps
Color space : YUV
Chroma subsampling : 4:2:0
Bit depth : 8 bits
Scan type : Progressive
Compression mode : Lossy
Bits/(Pixel*Frame) : 0.222
Stream size : 2.45 GiB (89%)
Writing library : XviD 1.2.1 (UTC 2008-12-04)

Audio
ID : 1
Format : AC-3
Format/Info : Audio Coding 3
Mode extension : CM (complete main)
Format settings, Endianness : Big
Codec ID : 2000
Duration : 1h 34mn
Bit rate mode : Constant
Bit rate : 448 Kbps
Channel(s) : 6 channels
Channel positions : Front: L C R, Side: L R, LFE
Sampling rate : 48.0 KHz
Bit depth : 16 bits
Compression mode : Lossy
Stream size : 303 MiB (11%)
Alignment : Split accross interleaves
Interleave, duration : 42 ms (1.00 video frame)
Interleave, preload duration : 500 ms

[/mediainfo]

TRACKERSEEDLEECHDOWNLOADED
udp://tracker.coppersurfer.tk:6969/announce
http://mgtracker.org:2710/announce
udp://9.rarbg.me:2710/announce
udp://11.rarbg.me:80/announce
udp://10.rarbg.me:80/announce
udp://12.rarbg.me:80/announce
udp://9.rarbg.com:2710/announce
udp://open.demonii.com:1337/announce
udp://tracker.publicbt.com:80/announce
udp://tracker.istole.it:80/announce
udp://tracker.openbittorrent.com:80/announce
udp://tracker.istole.it:6969/announce
http://tracker.istole.it/announce
http://tracker.trackerfix.com/announce
udp://tracker.ccc.de:80/announce
http://tracker.thepiratebay.org/announce
udp://tracker-ccc.de:6969/announce
FILESIZE
Beneath.the.Planet.of.the.Apes.1970.720p.BRRip.XviD.AC3-RARBG.avi2.75 GB
RARBG.com.txt31 B

Login

Account deleting

Are you sure you want to delete your account?

WARNING: This action cannot be undone!!!