Login / Register
HDRiP

Battle.For.The.Planet.Of.The.Apes.1973.720p.BRRip.XviD.AC3-RARBG

Category: Video
Type: Movies
Movie Title: Battle for the Planet of the Apes
Detected quality: HDRiP
Release date: 1973-06-14
Cast: John Landis,Lew Ayres,John Huston,Roddy McDowall,Michael Stearns,Claude Akins,James Bacon,Colleen Camp,Pat Cardi,Paula Crist,Severn Darden,Richard Eastham,Jimmy Gambina,Jimmy Gambina,Natalie Trundy,Paul Williams,France Nuyen,Paul Stevens,Bobby Porter
Genre: Action, Sci-Fi
External Links: IMDB
Director: J. Lee Thompson
Producers: Frank Capra Jr.,Arthur P. Jacobs
Writers: Pierre Boulle,John William Corrington,Joyce Hooper Corrington,Paul Dehn
Duration: 93
IMDB rating: 5.5 (20,174 votes)
Summary: Ten years after conquering the Earth, ape leader Caesar wants the ruling apes and enslaved humans to live in peace. But warring factions of apes led by a militant gorilla general as well as various human groups threaten the stability.
Votes
Good: 0
Bad: 0
GoodBad
0
Seeders
1
Leechers

Added: 2014-07-14

Size: 2.51 GB

Health: 25%

Hash (Base16): 03F3FB55669914E3F01832F1192A406B2DEDD37C

Hash (Base32): APZ7WVLGTEKOH4AYGLYRSKSANMW63U34

DownloadBookmark
DOWNLOAD LOCATIONS
http://rarbg.to/torrent/jlx34np
http://bitsnoop.com/battle-for-the-planet-of-the-apes-1-q66062321.html
http://thepiratebay.se/torrent/10554717/Battle.For.The.Planet.Of.The.Apes.1973.720p.BRRip.XviD.AC3-RARBG
http://isohunt.to/torrent_details/12094604/Battle-For-The-Planet-Of-The-Apes-1973-720p-BRRip-XviD-AC3-RARBG
http://torrenthound.to/hash/03f3fb55669914e3f01832f1192a406b2dedd37c/torrent-info/Battle.For.The.Planet.Of.The.Apes.1973.720p.BRRip.XviD.AC3-RARBG#files
http://www.monova.org/torrent/8274364/BattleForThePlanetOfTheApes1973720pBRRipXviDAC3-RARBG.html
http://www.torrents.net/torrent/5220951/Battle.For.The.Planet.Of.The.Apes.1973.720p.BRRip.XviD.AC3-RARBG/
http://www.torlock.com/torrent/3055158/battle-for-the-planet-of-the-apes-1973-720p-brrip-bg.html
http://www.limetorrents.cc/Battle-For-The-Planet-Of-The-Apes-1973-720p-BRRip-XviD-AC3-RARBG-torrent-4798484.html
http://fastpiratebay.eu/thepiratebay.se/torrent/10554717/Battle.For.The.Planet.Of.The.Apes.1973.720p.BRRip.XviD.AC3-RARBG
http://www.torrentreactor.net/torrents/25658315/Battle-For-The-Planet-Of-The-Apes-1973-720p-BRRip-XviD-AC3-RARBG
http://www.seedpeer.me/details/8221366/Battle.For.The.Planet.Of.The.Apes.1973.720p.BRRip.XviD.AC3-RARBG.html
http://www.torrentzap.com/torrent/2421584/Battle+For+The+Planet+Of+The+Apes+1973+720p+BRRip+XviD+AC3-RARBG
http://www.torrentdownloads.me/torrent/1658620439/Battle+For+The+Planet+Of+The+Apes+1973+720p+BRRip+XviD+AC3-RARBG
http://www.torrentfunk.com/torrent/8914655/battle-for-the-planet-of-the-apes-1973-720p-brrip-bg.html
http://bittorrentstart.com/battle-for-the-planet-of-the-apes-1973-720p-brrip-xvid-ac3-rarbg-tf4142393.html
https://torrentproject.se/03f3fb55669914e3f01832f1192a406b2dedd37c/Battle.For.The.Planet.Of.The.Apes.1973.720p.BRRip.XviD.AC3-RARBG-torrent.html
^

Battle.For.The.Planet.Of.The.Apes.1973.720p.BRRip.XviD.AC3-RARBG

image

Title: Battle for the Planet of the Apes (1973)
IMDB Rating: 5.3/10
Genres: Action
Actors: Roddy McDowall , Claude Akins , Natalie Trundy , Severn Darden , Lew Ayres , Paul Williams , Austin Stoker , Noah Keen , Richard Eastham , France Nuyen , Paul Stevens , Heather Lowe , Bobby Porter , Michael Stearns , Cal Wilson
Runtime: 93
Year: 1973
Plot:
After conquering the oppressive humans in "Conquest for the Planet of the Apes"| Caesar must now keep the peace among the humans and apes. Gorilla General Aldo views
things differently| and tries to cause an ape civil war. In the meantime| other human survivors learn of the ape city| and decide they want to take back civilization
for themselves| thus setting the stage of warring ape factions and humans. [mediainfo]


Format : AVI
Format/Info : Audio Video Interleave
Format profile : OpenDML
File size : 2.51 GiB
Duration : 1h 26mn
Overall bit rate : 4 159 Kbps
Writing application : VirtualDubMod 1.5.10.2 (build 2540/release)
Writing library : VirtualDubMod build 2540/release

Video
ID : 0
Format : MPEG-4 Visual
Format profile : Advanced Simple@L5
Format settings, BVOP : 2
Format settings, QPel : No
Format settings, GMC : No warppoints
Format settings, Matrix : Default (H.263)
Muxing mode : Packed bitstream
Codec ID : XVID
Codec ID/Hint : XviD
Duration : 1h 26mn
Bit rate : 3 700 Kbps
Width : 1 280 pixels
Height : 544 pixels
Display aspect ratio : 2.35:1
Frame rate : 23.976 fps
Color space : YUV
Chroma subsampling : 4:2:0
Bit depth : 8 bits
Scan type : Progressive
Compression mode : Lossy
Bits/(Pixel*Frame) : 0.222
Stream size : 2.24 GiB (89%)
Writing library : XviD 1.2.1 (UTC 2008-12-04)

Audio
ID : 1
Format : AC-3
Format/Info : Audio Coding 3
Mode extension : CM (complete main)
Format settings, Endianness : Big
Codec ID : 2000
Duration : 1h 26mn
Bit rate mode : Constant
Bit rate : 448 Kbps
Channel(s) : 6 channels
Channel positions : Front: L C R, Side: L R, LFE
Sampling rate : 48.0 KHz
Bit depth : 16 bits
Compression mode : Lossy
Stream size : 277 MiB (11%)
Alignment : Split accross interleaves
Interleave, duration : 42 ms (1.00 video frame)
Interleave, preload duration : 500 ms

[/mediainfo]

TRACKERSEEDLEECHDOWNLOADED
http://mgtracker.org:2710/announce
udp://9.rarbg.me:2710/announce
udp://11.rarbg.me:80/announce
udp://10.rarbg.me:80/announce
udp://12.rarbg.me:80/announce
udp://9.rarbg.com:2710/announce
udp://open.demonii.com:1337/announce
udp://tracker.publicbt.com:80/announce
udp://tracker.istole.it:80/announce
udp://tracker.openbittorrent.com:80/announce
udp://tracker.istole.it:6969/announce
http://tracker.istole.it/announce
http://tracker.leechers-paradise.org:6969/announce
http://tracker.nwps.ws:6969/announce
http://bt.careland.com.cn:6969/announce
http://bttracker.crunchbanglinux.org:6969/announce
http://tracker.best-torrents.net:6969/announce
http://tracker.tfile.me/announce
http://tracker.trackerfix.com/announce
http://9.rarbg.com:2710/announce
udp://tracker.ccc.de:80/announce
udp://tracker.leechers-paradise.org:6969/announce
http://tracker.thepiratebay.org/announce
http://shadowshq.eddie4.nl:6969/announce
http://shadowshq.yi.org:6969/announce
http://www.eddie4.nl:6969/announce
http://eddie4.nl:6969/announce
http://retracker.perm.ertelecom.ru/announce
http://121.14.98.151:9090/announce
udp://tracker-ccc.de:6969/announce
FILESIZE
Battle.For.The.Planet.Of.The.Apes.1973.720p.BRRip.XviD.AC3-RARBG.avi2.51 GB
RARBG.com.txt31 B

Login

Account deleting

Are you sure you want to delete your account?

WARNING: This action cannot be undone!!!