Login / Register

Need.For.Speed.2014.720p.HDRip.HC.x264.AC3-RARBG

Category: Video
Type: Movies
Movie Title: Nemesis 3: Time Lapse
Cast: Albert Pyun,Rebecca Charles,Albert Pyun,Sue Price,Tim Thomerson,Norbert Weisser,Xavier Declie,Sharon Bruneau,Debbie Muggli,Ursula Sarcev,Earl White,Jon H. Epstein,Chad Stahelski,Karen Studer,Bobby Brown,Jahi J.J. Zuri,Shelton Baily,Cinque Glend
Genre: Action, Thriller, Sci-Fi
Director: Albert Pyun
Producer: Jessica G. Budin
Writer: Rebecca Charles
Duration: 85
Summary: Using footage left over from Nemesis 2 and a very thin story line sees Alex again fighting the cyborg mercenaries in 1998 East Africa. This time, Alex finds that she has 20 half sisters who are waiting for her to return to 2077. Central Command wants Alex captured alive and scanned to see if her DNA is a strong and more powerful strain than the normal. But Alex may be too tough for Farnsworth to capture.
Votes
Good: 0
Bad: 0
GoodBad
0
Seeders
1
Leechers

Added: 2014-07-11

Size: 2.81 GB

Health: 25%

Hash (Base16): ABB91F1C54754EC052A57F07E32C1939D4B5ADBD

Hash (Base32): VO4R6HCUOVHMAUVFP4D6GLAZHHKLLLN5

DownloadBookmark
^

Need.For.Speed.2014.720p.HDRip.HC.x264.AC3-RARBG

Notes: Harcoded Chinese subtitles.

image

Title: Need for Speed (2014)
IMDB Rating: 7.2/10
Genres: Action , Crime , Drama , Thriller
Actors: Aaron Paul , Dominic Cooper , Imogen Poots , Scott Mescudi , Rami Malek , Ramon Rodriguez , Harrison Gilbertson , Dakota Johnson , Stevie Ray Dallimore , Michael Keaton , Alan Pflueger , Brian L. Keaulana , Logan Holladay , Carmela Zumbado , Jalil Jay Lynch
Runtime: 132
Year: 2014
Plot:
Framed by an ex-partner for a murder he did not commit| Tobey Marshall| a financially struggling custom-car builder and street-racer| spends two years in jail
thinking about one moment. Fresh out of prison he reacquires the fastest car his workshop ever built and sold| and seeks to enter a secretive and extremely
high-stakes race known as The DeLeon. His purpose; redemption| recognition from the world of racing and to solve his problems. Yet all this fades in comparison to
his driving reason. Revenge. Above all| revenge. This is a story about love| redemption| revenge and motor oil all swirled together| but above all; It's a story
about fast| fast cars.


Need.For.Speed.2014.720p.HDRip.HC.x264.AC3-RARBG

http://imdb.com/title/tt2369135/

Screens:
image
image
image
image
image
image
image
image
image
image
image
image

Info:

[mediainfo]

Video
ID : 1
Format : AVC
Format/Info : Advanced Video Codec
Format profile : [email protected]
Format settings, CABAC : Yes
Format settings, ReFrames : 4 frames
Codec ID : V_MPEG4/ISO/AVC
Duration : 2h 5mn
Bit rate : 3 000 Kbps
Width : 1 280 pixels
Height : 536 pixels
Display aspect ratio : 2.40:1
Frame rate mode : Constant
Frame rate : 30.000 fps
Color space : YUV
Chroma subsampling : 4:2:0
Bit depth : 8 bits
Scan type : Progressive
Bits/(Pixel*Frame) : 0.146
Stream size : 2.56 GiB (91%)
Title : Need.For.Speed.2014.720p.HDRip.HC.x264.AC3-RARBG
Writing library : x264 core 116 r2074 2641b9e
Language : English
Default : Yes
Forced : No

Audio
ID : 2
Format : AC-3
Format/Info : Audio Coding 3
Mode extension : CM (complete main)
Format settings, Endianness : Big
Codec ID : A_AC3
Duration : 2h 5mn
Bit rate mode : Constant
Bit rate : 224 Kbps
Channel(s) : 2 channels
Channel positions : Front: L R
Sampling rate : 48.0 KHz
Bit depth : 16 bits
Compression mode : Lossy
Stream size : 201 MiB (7%)
Title : Need.For.Speed.2014.720p.HDRip.HC.x264.AC3-RARBG
Language : English
Default : Yes
Forced : No


[/mediainfo]

Notes:
Harcoded Chinese subtitles.
Greetz to everyone :)

TRACKERSEEDLEECHDOWNLOADED
udp://9.rarbg.me:2710/announce
udp://11.rarbg.me:80/announce
udp://10.rarbg.me:80/announce
udp://12.rarbg.me:80/announce
udp://9.rarbg.com:2710/announce
udp://open.demonii.com:1337/announce
udp://tracker.publicbt.com:80/announce
udp://tracker.istole.it:80/announce
udp://tracker.openbittorrent.com:80/announce
udp://tracker.istole.it:6969/announce
http://tracker.istole.it/announce
http://tracker.trackerfix.com/announce
http://exodus.desync.com:6969/announce
udp://tracker.ccc.de:80/announce
http://tracker.thepiratebay.org/announce
http://bt2.careland.com.cn:6969/announce
http://www.elitezones.ro/announce.php
http://elitezones.ro/announce.php
udp://tracker-ccc.de:6969/announce
FILESIZE
Need.For.Speed.2014.720p.HDRip.HC.x264.AC3-RARBG.mkv2.81 GB
RARBG.com.mp4992.93 KB
Need.For.Speed.2014.720p.HDRip.HC.x264.AC3-RARBG.nfo2.82 KB
RARBG.com.txt31 B

Related results

Date Title Size Files Seeds Leechs Category Health
Video(Movies) 1.58 GB 4 2014-07-10 1 0 25%
Video(Movies) 3.53 GB 4 2014-07-10 1 0 25%
Video(Movies) 1.99 GB 4 2014-07-11 0 0 N/A

Login

Account deleting

Are you sure you want to delete your account?

WARNING: This action cannot be undone!!!