Login / Register

Survivor.2014.BRRip.XviD.MP3-RARBG

Category: Video
Type: Movies
Language: English
Subtitles: English
Movie Title: Survivor
Detected quality: HDRiP
Release date: 2014-07-21
Cast: Danielle Chuchran,Kevin Sorbo,Andrew Dee Jones,Paul D. Hunt,Nicola Posener,Rocky Myers,James C. Morris,Abigail Mason
Genre: Action, Fantasy, Sci-Fi
External Links: IMDB
Director: John Lyde
Producers: Jasper Jan,Cal Nguyen,Jason Faller,Kynan Griffin,Kevin Carvell,John Lyde,Gil Aglaure,Rizwan Virk,Saad Al-Enezi,Marcus Bruckner,Saad Al-Enezi Rizwan Virk
Writer: John Lyde
Duration: 93
IMDB rating: 3.9 (465 votes)
Summary: During their search for a habitable planet the last living humans crash-land on a barren world, inhabited by bloodthirsty aliens and mysterious post-apocalyptic warriors.
Votes
Good: 0
Bad: 0
GoodBad
0
Seeders
1
Leechers

Added: 2014-07-13

Size: 1.17 GB

Health: 25%

Hash (Base16): 44B841F330B14266FE1C62C023B0AF2252BFF9AD

Hash (Base32): IS4ED4ZQWFBGN7Q4MLACHMFPEJJL76NN

DownloadBookmark
^

Survivor.2014.BRRip.XviD.MP3-RARBG

image

Title: Survivor (2014)
Genres: Action , Fantasy
Actors: Danielle Chuchran , Kevin Sorbo , Paul D. Hunt , Nicola Posener , James C. Morris , Blake Webb , Deborah Lee Douglas , Abigail Mason , Melanie Stone , Dave Bresnahan , Rocky Myers , Vaughn Odenbrett , Paddy Wallace , Ruby Jones , Braxton McAllister
Runtime: 93
Year: 2014
Plot:
During their search for a habitable planet the last living humans crash-land on a barren world| inhabited by bloodthirsty aliens and mysterious post-apocalyptic
warriors.


Survivor.2014.BRRip.XviD.MP3-RARBG

http://imdb.com/title/tt3297792/

Screens:
image
image
image
image
image
image

Info:

[mediainfo]

Format : AVI
Format/Info : Audio Video Interleave
File size : 1.17 GiB
Duration : 1h 33mn
Overall bit rate : 1 803 Kbps
Movie name : RARBG.COM - Survivor.2014.BRRip.XviD.MP3-RARBG
Writing library : VirtualDub build 35491/release
Comment : RARBG.COM - Survivor.2014.BRRip.XviD.MP3-RARBG

Video
ID : 0
Format : MPEG-4 Visual
Format profile : Simple@L5
Format settings, BVOP : No
Format settings, QPel : No
Format settings, GMC : No warppoints
Format settings, Matrix : Default (H.263)
Codec ID : XVID
Codec ID/Hint : XviD
Duration : 1h 33mn
Bit rate : 1 599 Kbps
Width : 720 pixels
Height : 402 pixels
Display aspect ratio : 16:9
Frame rate : 23.976 fps
Color space : YUV
Chroma subsampling : 4:2:0
Bit depth : 8 bits
Scan type : Progressive
Compression mode : Lossy
Bits/(Pixel*Frame) : 0.230
Stream size : 1.04 GiB (89%)
Writing library : Lavc55.61.100

Audio
ID : 1
Format : MPEG Audio
Format version : Version 1
Format profile : Layer 3
Mode : Joint stereo
Mode extension : MS Stereo
Codec ID : 55
Codec ID/Hint : MP3
Duration : 1h 33mn
Bit rate mode : Constant
Bit rate : 192 Kbps
Channel(s) : 2 channels
Sampling rate : 48.0 KHz
Compression mode : Lossy
Stream size : 128 MiB (11%)
Alignment : Aligned on interleaves
Interleave, duration : 24 ms (0.58 video frame)
Interleave, preload duration : 504 ms
Writing library : LAME3.99.5



[/mediainfo]

Notes:
Greetz to everyone :)

TRACKERSEEDLEECHDOWNLOADED
http://mgtracker.org:2710/announce
udp://9.rarbg.me:2710/announce
udp://11.rarbg.me:80/announce
udp://10.rarbg.me:80/announce
udp://12.rarbg.me:80/announce
udp://9.rarbg.com:2710/announce
udp://open.demonii.com:1337/announce
udp://tracker.publicbt.com:80/announce
udp://tracker.istole.it:80/announce
udp://tracker.openbittorrent.com:80/announce
udp://tracker.istole.it:6969/announce
http://tracker.istole.it/announce
http://tracker.leechers-paradise.org:6969/announce
http://bt.careland.com.cn:6969/announce
http://bttracker.crunchbanglinux.org:6969/announce
http://tracker.trackerfix.com/announce
udp://tracker.ccc.de:80/announce
http://tracker.thepiratebay.org/announce
http://shadowshq.eddie4.nl:6969/announce
http://shadowshq.yi.org:6969/announce
http://www.eddie4.nl:6969/announce
http://eddie4.nl:6969/announce
http://retracker.perm.ertelecom.ru/announce
http://www.elitezones.ro/announce.php
http://elitezones.ro/announce.php
http://121.14.98.151:9090/announce
udp://tracker-ccc.de:6969/announce
FILESIZE
Survivor.2014.BRRip.XviD.MP3-RARBG.avi1.17 GB
RARBG.com.mp4992.93 KB
Survivor.2014.BRRip.XviD.MP3-RARBG.nfo3.14 KB
Survivor.2014.BRRip.XviD.MP3-RARBG.srt2.86 KB
RARBG.com.txt31 B

Related results

Date Title Size Files Seeds Leechs Category Health
Video(Movies) 1.34 GB 5 2014-07-12 0 1 25%
Video(Movies) 2.87 GB 5 2014-07-12 0 1 25%
Video(Movies) 2.16 GB 4 2014-03-23 0 1 25%
Video(Movies) 1.43 GB 4 2014-03-23 1 0 25%
Video(Movies) 1.07 GB 4 2014-03-22 1 1 25%
Video(Movies) 1.65 GB 4 2014-03-22 1 0 25%
Video(Movies) 3.26 GB 4 2014-03-22 1 0 25%

Login

Account deleting

Are you sure you want to delete your account?

WARNING: This action cannot be undone!!!