Login / Register

Survivor.2014.BRRip.XviD.AC3-RARBG

Category: Video
Type: Movies
Language: English
Subtitles: English
Movie Title: Survivor
Detected quality: HDRiP
Release date: 2014-07-21
Cast: Danielle Chuchran,Kevin Sorbo,Andrew Dee Jones,Paul D. Hunt,Nicola Posener,Rocky Myers,James C. Morris,Abigail Mason
Genre: Action, Fantasy, Sci-Fi
External Links: IMDB
Director: John Lyde
Producers: Jasper Jan,Cal Nguyen,Jason Faller,Kynan Griffin,Kevin Carvell,John Lyde,Gil Aglaure,Rizwan Virk,Saad Al-Enezi,Marcus Bruckner,Saad Al-Enezi Rizwan Virk
Writer: John Lyde
Duration: 93
IMDB rating: 3.9 (465 votes)
Summary: During their search for a habitable planet the last living humans crash-land on a barren world, inhabited by bloodthirsty aliens and mysterious post-apocalyptic warriors.
Votes
Good: 0
Bad: 0
GoodBad
0
Seeders
1
Leechers

Added: 2014-07-13

Size: 1.34 GB

Health: 25%

Hash (Base16): 219FE9AF6B00A4DC0CBF234FEEAA4897B03BB686

Hash (Base32): EGP6TL3LACSNYDF7ENH65KSIS6YDXNUG

DownloadBookmark
^

Survivor.2014.BRRip.XviD.AC3-RARBG

image

Title: Survivor (2014)
Genres: Action , Fantasy
Actors: Danielle Chuchran , Kevin Sorbo , Paul D. Hunt , Nicola Posener , James C. Morris , Blake Webb , Deborah Lee Douglas , Abigail Mason , Melanie Stone , Dave Bresnahan , Rocky Myers , Vaughn Odenbrett , Paddy Wallace , Ruby Jones , Braxton McAllister
Runtime: 93
Year: 2014
Plot:
During their search for a habitable planet the last living humans crash-land on a barren world| inhabited by bloodthirsty aliens and mysterious post-apocalyptic
warriors.


Survivor.2014.BRRip.XviD.AC3-RARBG

http://imdb.com/title/tt3297792/

Screens:
image
image
image
image
image
image

Info:

[mediainfo]

Format : AVI
Format/Info : Audio Video Interleave
File size : 1.34 GiB
Duration : 1h 33mn
Overall bit rate : 2 056 Kbps
Movie name : RARBG.COM - Survivor.2014.BRRip.XviD.AC3-RARBG
Writing library : VirtualDub build 35491/release
Comment : RARBG.COM - Survivor.2014.BRRip.XviD.AC3-RARBG

Video
ID : 0
Format : MPEG-4 Visual
Format profile : [email protected]
Format settings, BVOP : No
Format settings, QPel : No
Format settings, GMC : No warppoints
Format settings, Matrix : Default (H.263)
Codec ID : XVID
Codec ID/Hint : XviD
Duration : 1h 33mn
Bit rate : 1 599 Kbps
Width : 720 pixels
Height : 402 pixels
Display aspect ratio : 16:9
Frame rate : 23.976 fps
Color space : YUV
Chroma subsampling : 4:2:0
Bit depth : 8 bits
Scan type : Progressive
Compression mode : Lossy
Bits/(Pixel*Frame) : 0.230
Stream size : 1.04 GiB (78%)
Writing library : Lavc55.61.100

Audio
ID : 1
Format : AC-3
Format/Info : Audio Coding 3
Mode extension : CM (complete main)
Format settings, Endianness : Big
Codec ID : 2000
Duration : 1h 33mn
Bit rate mode : Constant
Bit rate : 448 Kbps
Channel(s) : 6 channels
Channel positions : Front: L C R, Side: L R, LFE
Sampling rate : 48.0 KHz
Bit depth : 16 bits
Compression mode : Lossy
Stream size : 298 MiB (22%)
Alignment : Aligned on interleaves
Interleave, duration : 42 ms (1.00 video frame)
Interleave, preload duration : 512 ms

[/mediainfo]

Notes:
Greetz to everyone :)

TRACKERSEEDLEECHDOWNLOADED
http://mgtracker.org:2710/announce
udp://9.rarbg.me:2710/announce
udp://11.rarbg.me:80/announce
udp://10.rarbg.me:80/announce
udp://12.rarbg.me:80/announce
udp://9.rarbg.com:2710/announce
udp://open.demonii.com:1337/announce
udp://tracker.publicbt.com:80/announce
udp://tracker.istole.it:80/announce
udp://tracker.openbittorrent.com:80/announce
udp://tracker.istole.it:6969/announce
http://tracker.istole.it/announce
http://tracker.trackerfix.com/announce
udp://tracker.ccc.de:80/announce
http://tracker.thepiratebay.org/announce
udp://tracker-ccc.de:6969/announce
FILESIZE
Survivor.2014.BRRip.XviD.AC3-RARBG.avi1.34 GB
RARBG.com.mp4992.93 KB
Survivor.2014.BRRip.XviD.AC3-RARBG.nfo3.11 KB
Survivor.2014.BRRip.XviD.AC3-RARBG.srt2.86 KB
RARBG.com.txt31 B

Related results

Date Title Size Files Seeds Leechs Category Health
Video(Movies) 1.17 GB 5 2014-07-12 0 1 25%
Video(Movies) 2.87 GB 5 2014-07-12 0 1 25%
Video(Movies) 1.43 GB 4 2014-03-23 0 1 25%
Video(Movies) 1.07 GB 4 2014-03-22 0 1 25%
Video(Movies) 1.65 GB 4 2014-03-22 0 1 25%
Video(Movies) 3.26 GB 4 2014-03-22 0 0 N/A

Login

Account deleting

Are you sure you want to delete your account?

WARNING: This action cannot be undone!!!