Login / Register
DVDRip

Rooster.Doodle.Doo.2014.DVDRip.XviD-MM

Category: Video
Type: Movies
Movie Title: Rooster Doodle-doo
Detected quality: DVDRip
Release date: 2014-05-31
Cast: Andy Cadiff,David Trainer,Gil Junger,Joe Regalbuto,Dennis Capps,Shelley Jensen,John Whitesell,Anthony Joseph Rich,Michael Lembeck,Jonathan Buss,Suzanne Martin,Sam Johnson,Chris Marcil,Anne Flett-Giordano,Chuck Ranberg,Rachel Sweet,Steve Jo
Genre: Comedy
External Links: IMDB
Director: Jonathan Buss
Producer: Jonathan Buss
Writer: Christopher G. Cowen
Duration: 81
Summary: In this fun family comedy, a village rooster's punctual (and loud!) crowing keeps everyone awake until a group of sleepy locals hatch a scheme to get rid of him.
Votes
Good: 0
Bad: 0
GoodBad
1
Seeders
0
Leechers

Added: 2014-07-13

Size: 771.03 MB

Health: 25%

Hash (Base16): 4A7CA2DA88F5F162574D8CD6CA335F8EFD5FC33A

Hash (Base32): JJ6KFWUI6XYWEV2NRTLMUM27R36V7QZ2

DownloadBookmark
^

Rooster.Doodle.Doo.2014.DVDRip.XviD-MM

image
[mediainfo]


Format : AVI
Format/Info : Audio Video Interleave
File size : 771 MiB
Duration : 1h 20mn
Overall bit rate : 1 342 Kbps

Video
ID : 0
Format : MPEG-4 Visual
Format profile : [email protected]
Format settings, BVOP : No
Format settings, QPel : No
Format settings, GMC : No warppoints
Format settings, Matrix : Default (H.263)
Codec ID : XVID
Codec ID/Hint : XviD
Duration : 1h 20mn
Bit rate : 1 200 Kbps
Width : 624 pixels
Height : 336 pixels
Display aspect ratio : 1.85:1
Frame rate : 29.970 fps
Color space : YUV
Chroma subsampling : 4:2:0
Bit depth : 8 bits
Scan type : Progressive
Compression mode : Lossy
Bits/(Pixel*Frame) : 0.191
Stream size : 689 MiB (89%)
Writing library : XviD 1.1.2 (UTC 2006-11-01)

Audio
ID : 1
Format : MPEG Audio
Format version : Version 1
Format profile : Layer 3
Mode : Joint stereo
Codec ID : 55
Codec ID/Hint : MP3
Duration : 1h 20mn
Source duration : 1h 20mn
Bit rate mode : Constant
Bit rate : 128 Kbps
Channel(s) : 2 channels
Sampling rate : 48.0 KHz
Compression mode : Lossy
Stream size : 73.5 MiB (10%)
Alignment : Split accross interleaves
Interleave, duration : 24 ms (0.72 video frame)

[/mediainfo]

TRACKERSEEDLEECHDOWNLOADED
udp://tracker.coppersurfer.tk:6969/announce
udp://9.rarbg.me:2710/announce
udp://11.rarbg.me:80/announce
udp://10.rarbg.me:80/announce
udp://12.rarbg.me:80/announce
udp://9.rarbg.com:2710/announce
udp://open.demonii.com:1337/announce
udp://tracker.publicbt.com:80/announce
udp://tracker.istole.it:80/announce
udp://tracker.openbittorrent.com:80/announce
udp://tracker.istole.it:6969/announce
http://tracker.istole.it/announce
http://tracker.trackerfix.com/announce
udp://tracker.ccc.de:80/announce
http://tracker.thepiratebay.org/announce
udp://tracker-ccc.de:6969/announce
FILESIZE
RARBG.com.txt31 B
Rooster.Doodle.Doo.2014.DVDRip.XviD-MM.avi771.03 MB
Rooster.Doodle.Doo.2014.DVDRip.XviD-MM.nfo1.01 KB

Related results

Date Title Size Files Seeds Leechs Category Health
Video(Movies) 1.82 GB 2 2014-07-13 0 1 25%
Video(Movies) 771.03 MB 3 2014-07-12 0 1 25%
Video(Movies) 771.03 MB 3 2014-07-12 1 0 25%
Video(Movies) 1.25 GB 4 2014-07-12 1 0 25%
Video(Movies) 771.03 MB 4 2014-07-12 0 2 25%
Video(Movies) 1.25 GB 5 2014-07-12 0 1 25%

Login

Account deleting

Are you sure you want to delete your account?

WARNING: This action cannot be undone!!!