Login / Register

Need For Speed 2014 720p BRRip XviD AC3 ACAB

Category: Video
Type: Movies
Movie Title: Hot in Cleveland
Cast: Andy Cadiff,David Trainer,Gil Junger,Joe Regalbuto,Dennis Capps,Shelley Jensen,John Whitesell,Anthony Joseph Rich,Michael Lembeck,Jonathan Buss,Suzanne Martin,Sam Johnson,Chris Marcil,Anne Flett-Giordano,Chuck Ranberg,Rachel Sweet,Steve Jo
Genre: Comedy
Director: Jonathan Buss
Producer: Jonathan Buss
Writer: Christopher G. Cowen
Duration: 30
Summary: Three 40-something best friends from Los Angeles are flying to Paris when their plane makes an emergency landing in Cleveland. Realizing that all the norms from Los Angeles don't apply anymore, they decide to celebrate a city that values real women and stay where they're still considered hot.
Votes
Good: 0
Bad: 0
GoodBad
1
Seeders
1
Leechers

Added: 2014-07-13

Size: 3.48 GB

Health: 25%

Hash (Base16): E1FF964F932DEE3AF467F51B1DF87311C743635C

Hash (Base32): 4H7ZMT4TFXXDV5DH6UNR36DTCHDUGY24

DownloadBookmark
^

Need For Speed 2014 720p BRRip XviD AC3 ACAB

image

Title: Need for Speed (2014)
IMDB Rating: 7.2/10
Genres: Action , Crime , Drama , Thriller
Actors: Aaron Paul , Dominic Cooper , Imogen Poots , Scott Mescudi , Rami Malek , Ramon Rodriguez , Harrison Gilbertson , Dakota Johnson , Stevie Ray Dallimore , Michael Keaton , Alan Pflueger , Brian L. Keaulana , Logan Holladay , Carmela Zumbado , Jalil Jay Lynch
Runtime: 132
Year: 2014
Plot:
Framed by an ex-partner for a murder he did not commit| Tobey Marshall| a financially struggling custom-car builder and street-racer| spends two years in jail
thinking about one moment. Fresh out of prison he reacquires the fastest car his workshop ever built and sold| and seeks to enter a secretive and extremely
high-stakes race known as The DeLeon. His purpose; redemption| recognition from the world of racing and to solve his problems. Yet all this fades in comparison to
his driving reason. Revenge. Above all| revenge. This is a story about love| redemption| revenge and motor oil all swirled together| but above all; It's a story
about fast| fast cars. [mediainfo]


Format : AVI
Format/Info : Audio Video Interleave
Format profile : OpenDML
File size : 3.43 GiB
Duration : 2h 10mn
Overall bit rate : 3 753 Kbps
Writing library : VirtualDub build 30091/release

Video
ID : 0
Format : MPEG-4 Visual
Format profile : Advanced Simple@L5
Format settings, BVOP : 2
Format settings, QPel : No
Format settings, GMC : No warppoints
Format settings, Matrix : Default (H.263)
Muxing mode : Packed bitstream
Codec ID : XVID
Codec ID/Hint : XviD
Duration : 2h 10mn
Bit rate : 3 295 Kbps
Width : 1 280 pixels
Height : 544 pixels
Display aspect ratio : 2.35:1
Frame rate : 23.976 fps
Color space : YUV
Chroma subsampling : 4:2:0
Bit depth : 8 bits
Scan type : Progressive
Compression mode : Lossy
Bits/(Pixel*Frame) : 0.197
Stream size : 3.01 GiB (88%)
Writing library : XviD 65

Audio
ID : 1
Format : AC-3
Format/Info : Audio Coding 3
Mode extension : CM (complete main)
Format settings, Endianness : Big
Codec ID : 2000
Duration : 2h 10mn
Bit rate mode : Constant
Bit rate : 448 Kbps
Channel(s) : 6 channels
Channel positions : Front: L C R, Side: L R, LFE
Sampling rate : 48.0 KHz
Bit depth : 16 bits
Compression mode : Lossy
Stream size : 419 MiB (12%)
Alignment : Aligned on interleaves
Interleave, duration : 42 ms (1.00 video frame)
Interleave, preload duration : 512 ms

[/mediainfo]

TRACKERSEEDLEECHDOWNLOADED
udp://9.rarbg.me:2710/announce
udp://11.rarbg.me:80/announce
udp://10.rarbg.me:80/announce
udp://12.rarbg.me:80/announce
udp://9.rarbg.com:2710/announce
udp://open.demonii.com:1337/announce
udp://tracker.publicbt.com:80/announce
udp://tracker.istole.it:80/announce
udp://tracker.openbittorrent.com:80/announce
udp://tracker.istole.it:6969/announce
http://tracker.trackerfix.com/announce
http://exodus.desync.com:6969/announce
udp://tracker.ccc.de:80/announce
http://tracker.thepiratebay.org/announce
udp://tracker-ccc.de:6969/announce
FILESIZE
Need For Speed 2014 720p BRRip XviD AC3 ACAB sample.avi57.73 MB
Need For Speed 2014 720p BRRip XviD AC3 ACAB.avi3.43 GB
RARBG.com.txt31 B

Related results

Date Title Size Files Seeds Leechs Category Health
Video(Movies) 1.95 GB 2 2014-07-11 7 2 100%
Video(Movies) 876.86 MB 2 2014-07-11 3 1 100%
Video(Movies) 4.11 GB 4 2014-07-15 0 1 25%
Video(3D Movies) 1.96 GB 2 2014-07-19 1 0 25%

Login

Account deleting

Are you sure you want to delete your account?

WARNING: This action cannot be undone!!!