Login / Register
DVDRip

Muppets.Most.Wanted.2014.BRRip.XviD-AQOS

Category: Video
Type: Movies
Movie Title: Muppets Most Wanted
Detected quality: DVDRip
Release date: 2014-03-20
Cast: Ty Burrell,Steve Whitmire,Eric Jacobson,Dave Goelz,Bill Barretta,David Rudman,Matt Vogel,Peter Linz,Zach Galifianakis,Tom Hiddleston,James McAvoy,Chloë Grace Moretz,Stanley Tucci,Christoph Waltz,Louise Gold,Lee Bainbridge,Ray Liotta,Céline Dion
Genre: Adventure, Comedy, Crime
External Links: IMDB
Director: James Bobin
Producers: Bill Barretta,David Hoberman,John G. Scotti,Angus More Gordon,Denis Pedregosa,Nicholas Stoller,Todd Lieberman,Bill Barretta
Writers: Jim Henson,James Bobin,Nicholas Stoller
Duration: 107
IMDB rating: 6.5 (17,242 votes)
Summary: While on a grand world tour, The Muppets find themselves wrapped into an European jewel-heist caper headed by a Kermit the Frog look-alike and his dastardly sidekick.
Votes
Good: 0
Bad: 0
GoodBad
0
Seeders
1
Leechers

Added: 2014-07-13

Size: 911.66 MB

Health: 25%

Hash (Base16): 857CF3E25C02E4873BCA608A6E7DA35A136F47E8

Hash (Base32): QV6PHYS4ALSIOO6KMCFG47NDLIJW6R7I

DownloadBookmark
^

Muppets.Most.Wanted.2014.BRRip.XviD-AQOS

image

Title: Muppets Most Wanted (2014)
IMDB Rating: 6.9/10
Genres: Adventure , Comedy , Crime , Family , Musical
Actors: Ricky Gervais , Ty Burrell , Tina Fey , Steve Whitmire , Eric Jacobson , Dave Goelz , Bill Barretta , David Rudman , Matt Vogel , Peter Linz , Tony Bennett , Hugh Bonneville , William Brand , Andrés Cantor , Jemaine Clement
Runtime: 107
Year: 2014
Plot:
Flush with their revival's success| Kermit the Frog and his friends are approached by Dominic Badguy to go on a world tour. Unknown to them| this is all part of the
sinister plan of Constantine| the world's most evil frog| to become the greatest thief of all time. After making sure that Kermit is jailed as himself| Constantine
impersonates him to use the Muppets' tour as cover for his scheme. While Sam the Eagle and Inspector Jean Pierre Napoleon investigate| the Muppets find their boss
seems strangely changed even as Kermit desperately attempts to escape to stop the impostor. Only when Walter| Fozzie and Animal realize the truth is there a chance
to prevent Constantine from pulling off the crime of the century. [mediainfo]


Format : AVI
Format/Info : Audio Video Interleave
File size : 894 MiB
Duration : 1h 47mn
Overall bit rate : 1 164 Kbps

Video
ID : 0
Format : MPEG-4 Visual
Format profile : Advanced Simple@L5
Format settings, BVOP : 2
Format settings, QPel : No
Format settings, GMC : No warppoints
Format settings, Matrix : Default (H.263)
Codec ID : XVID
Codec ID/Hint : XviD
Duration : 1h 47mn
Bit rate : 1 033 Kbps
Width : 720 pixels
Height : 400 pixels
Display aspect ratio : 16:9
Frame rate : 23.976 fps
Color space : YUV
Chroma subsampling : 4:2:0
Bit depth : 8 bits
Scan type : Progressive
Compression mode : Lossy
Bits/(Pixel*Frame) : 0.150
Stream size : 793 MiB (89%)
Writing library : XviD 1.2.1 (UTC 2008-12-04)

Audio
ID : 1
Format : MPEG Audio
Format version : Version 1
Format profile : Layer 3
Mode : Joint stereo
Codec ID : 55
Codec ID/Hint : MP3
Duration : 1h 45mn
Bit rate mode : Constant
Bit rate : 128 Kbps
Channel(s) : 2 channels
Sampling rate : 48.0 KHz
Compression mode : Lossy
Stream size : 96.6 MiB (11%)
Alignment : Aligned on interleaves
Interleave, duration : 170 ms (4.07 video frames)
Interleave, preload duration : 216 ms
Title : Muppets.Most.Wanted.2014 - [0] English
Writing library : LAME3.99r
Encoding settings : -m j -V 4 -q 2 -lowpass 17 -b 128

[/mediainfo]

TRACKERSEEDLEECHDOWNLOADED
udp://tracker.coppersurfer.tk:6969/announce
http://mgtracker.org:2710/announce
udp://9.rarbg.me:2710/announce
udp://11.rarbg.me:80/announce
udp://10.rarbg.me:80/announce
udp://12.rarbg.me:80/announce
udp://9.rarbg.com:2710/announce
udp://open.demonii.com:1337/announce
udp://tracker.publicbt.com:80/announce
udp://tracker.istole.it:80/announce
udp://tracker.openbittorrent.com:80/announce
udp://tracker.istole.it:6969/announce
http://tracker.istole.it/announce
http://tracker.leechers-paradise.org:6969/announce
http://bt.careland.com.cn:6969/announce
http://bttracker.crunchbanglinux.org:6969/announce
http://tracker.trackerfix.com/announce
http://exodus.desync.com:6969/announce
udp://tracker.ccc.de:80/announce
http://tracker.thepiratebay.org/announce
http://shadowshq.eddie4.nl:6969/announce
http://shadowshq.yi.org:6969/announce
http://www.eddie4.nl:6969/announce
http://eddie4.nl:6969/announce
http://tracker2.wasabii.com.tw:6969/announce
http://121.14.98.151:9090/announce
udp://tracker-ccc.de:6969/announce
FILESIZE
RARBG.com.txt31 B
Subs/English.srt113.26 KB
aqos-muppets.most.wanted.2014.brrip.xvid.avi894 MB
aqos-muppets.most.wanted.2014.brrip.xvid.nfo13.27 KB
sample.avi17.54 MB

Related results

Date Title Size Files Seeds Leechs Category Health
Video(Movies) 2.45 GB 4 2014-07-12 0 1 25%
Video(Movies) 1.35 GB 4 2014-07-11 1 0 25%
Video(Movies) 809.96 MB 2 2014-07-11 20 4 100%
Video(Movies) 1.64 GB 2 2014-07-11 17 4 100%
Video(Movies) 1.19 GB 4 2014-07-11 1 0 25%
Video(Movies) 2.58 GB 5 2014-07-18 0 1 25%

Login

Account deleting

Are you sure you want to delete your account?

WARNING: This action cannot be undone!!!