Login / Register
DVDRip

The Cloth 2013 BRRip x264 AC3-MiLLENiUM

Category: Video
Type: Movies
Movie Title: The Cloth
Detected quality: DVDRip
Cast: Asad Farr,Amber Nicole,Kyler Willett,Elyssia Gonzalez,Cameron White,Dan Roman,Viridiana Garza,Perla Rodríguez,Khu,Mako Veronica,Sebastian Trevino,Daniel Roman,Danny Trejo,Eric Roberts,Steven Brand,Robert Miano,Rachele Brooke Smith,Emilio Roso
Genre: Adventure, Sci-Fi, Thriller
External Links: IMDB
Director: Justin Price
Producers: Lamese Williams,Justin Price,Amber Oliveras,Khu,Jennifer L. George,Harold Hardamon,Charles Keys,Eminence Pictures
Writer: Justin Price
Duration: 88
IMDB rating: 4.7 (187 votes)
Summary: Action/horror story centered on a secret organization formed by the Catholic Church to counteract the rising number of cases of demonic possessions across the country. The story follows a young godless man who is being recruited into the cloth in order to prepare a new generation with the tools needed to stop the rise of the ultimate evil; Beelzebub.
Votes
Good: 0
Bad: 0
GoodBad
0
Seeders
3
Leechers

Added: 2014-07-13

Size: 847.07 MB

Health: 25%

Hash (Base16): 83C0E58C242EC31FF03EB7AA4C3B75E29E09AC7B

Hash (Base32): QPAOLDBEF3BR74B6W6VEYO3V4KPATLD3

DownloadBookmark
^

The Cloth 2013 BRRip x264 AC3-MiLLENiUM

image

Title: The Cloth (2013)
IMDB Rating: 2.9/10
Genres: Adventure , Fantasy , Horror , Thriller
Actors: Danny Trejo , Eric Roberts , Rachele Brooke Smith , Justin Price , Robert Miano , Lassiter Holmes , Kyler Willett , Cameron White , Steven Brand , Perla Rodríguez , Khu , Mako Veronica , Daniel Roman , Aasem Alhajhussein , Andres G. Del Toro
Runtime: 88
Year: 2013
Plot:
The Cloth centers on a secret organization formed by the Catholic Church to counteract the rising number of cases of demonic possessions across the country. The
story follows a young godless man who is being recruited into the cloth in order to prepare a new generation with the tools needed to stop the rise of the ultimate
evil| Beelzebub. A battle for mankind's existence. The battle for your soul has begun. [mediainfo]


Format : Matroska
Format version : Version 2
File size : 827 MiB
Duration : 1h 30mn
Overall bit rate mode : Variable
Overall bit rate : 1 275 Kbps
Encoded date : UTC 2014-07-13 12:49:12
Writing application : mkvmerge v7.0.0 ('Where We Going') 32bit built on Jun 9 2014 15:08:34
Writing library : libebml v1.3.0 + libmatroska v1.4.1
DURATION : 01:30:40.672000000
NUMBER_OF_FRAMES : 170021
NUMBER_OF_BYTES : 304677632
_STATISTICS_WRITING_APP : mkvmerge v7.0.0 ('Where We Going') 32bit built on Jun 9 2014 15:08:34
_STATISTICS_WRITING_DATE_UTC : 2014-07-13 12:49:12
_STATISTICS_TAGS : BPS DURATION NUMBER_OF_FRAMES NUMBER_OF_BYTES

Video
ID : 1
Format : AVC
Format/Info : Advanced Video Codec
Format profile : High@L4.1
Format settings, CABAC : Yes
Format settings, ReFrames : 3 frames
Codec ID : V_MPEG4/ISO/AVC
Duration : 1h 30mn
Bit rate mode : Variable
Bit rate : 802 Kbps
Maximum bit rate : 40.0 Mbps
Width : 720 pixels
Height : 304 pixels
Display aspect ratio : 2.35:1
Frame rate mode : Constant
Frame rate : 23.976 fps
Color space : YUV
Chroma subsampling : 4:2:0
Bit depth : 8 bits
Scan type : Progressive
Bits/(Pixel*Frame) : 0.153
Stream size : 520 MiB (63%)
Writing library : x264 core 142 r2431 ac76440
Encoding settings : cabac=1 / ref=4 / deblock=1:-1:-1 / analyse=0x3:0x113 / me=umh / subme=9 / psy=1 / psy_rd=1.00:0.15 / mixed_ref=1 / me_range=18 / chroma_me=1 / trellis=2 / 8x8dct=1 / cqm=0 / deadzone=21,11 / fast_pskip=0 / chroma_qp_offset=-3 / threads=16 / lookahead_threads=1 / sliced_threads=0 / slices=4 / nr=0 / decimate=1 / interlaced=0 / bluray_compat=0 / constrained_intra=0 / bframes=3 / b_pyramid=1 / b_adapt=2 / b_bias=0 / direct=1 / weightb=1 / open_gop=0 / weightp=0 / keyint=23 / keyint_min=1 / scenecut=40 / intra_refresh=0 / rc_lookahead=23 / rc=crf / mbtree=1 / crf=19.0 / qcomp=0.60 / qpmin=10 / qpmax=51 / qpstep=4 / vbv_maxrate=40000 / vbv_bufsize=30000 / crf_max=0.0 / nal_hrd=vbr / filler=0 / ip_ratio=1.40 / aq=1:1.00
Default : Yes
Forced : No
Color primaries : BT.709
Transfer characteristics : BT.709
Matrix coefficients : BT.709

Audio
ID : 2
Format : AC-3
Format/Info : Audio Coding 3
Mode extension : CM (complete main)
Format settings, Endianness : Big
Codec ID : A_AC3
Duration : 1h 30mn
Bit rate mode : Constant
Bit rate : 448 Kbps
Channel(s) : 6 channels
Channel positions : Front: L C R, Side: L R, LFE
Sampling rate : 48.0 KHz
Bit depth : 16 bits
Compression mode : Lossy
Stream size : 291 MiB (35%)
Language : English
Default : Yes
Forced : No

[/mediainfo]

TRACKERSEEDLEECHDOWNLOADED
udp://9.rarbg.me:2710/announce
udp://11.rarbg.me:80/announce
udp://10.rarbg.me:80/announce
udp://12.rarbg.me:80/announce
udp://9.rarbg.com:2710/announce
udp://open.demonii.com:1337/announce
udp://tracker.publicbt.com:80/announce
udp://tracker.istole.it:80/announce
udp://tracker.openbittorrent.com:80/announce
udp://tracker.istole.it:6969/announce
http://tracker.istole.it/announce
http://tracker.trackerfix.com/announce
http://9.rarbg.com:2710/announce
udp://tracker.ccc.de:80/announce
http://tracker.thepiratebay.org/announce
http://www.elitezones.ro/announce.php
http://elitezones.ro/announce.php
udp://tracker-ccc.de:6969/announce
FILESIZE
RARBG.com.txt31 B
Sample.mkv20.05 MB
The Cloth 2013 BRRip x264 AC3-MiLLENiUM.mkv827.02 MB
cloth.nfo3.77 KB

Related results

Date Title Size Files Seeds Leechs Category Health
Video(Movies) 1.33 GB 4 2014-07-17 1 0 25%
Video(Movies) 1.33 GB 3 2014-07-17 0 1 25%
Video(Movies) 847.08 MB 5 2014-07-12 1 0 25%
Video(Movies) 847.07 MB 4 2014-07-12 0 1 25%
Video(Movies) 847.07 MB 5 2014-07-12 1 0 25%

Login

Account deleting

Are you sure you want to delete your account?

WARNING: This action cannot be undone!!!