Login / Register

Hercules.Reborn.2014.BRrip.Xvid.Ac3-MiLLENIUM

Category: Video
Type: Movies
Votes
Good: 0
Bad: 0
GoodBad
1
Seeders
1
Leechers

Added: 2014-07-13

Size: 1.44 GB

Health: 25%

Hash (Base16): 71839A6208CB65CC1C1A13A6146968AB83B4D4A0

Hash (Base32): OGBZUYQIZNS4YHA2COTBI2LIVOB3JVFA

DownloadBookmark
^

Hercules.Reborn.2014.BRrip.Xvid.Ac3-MiLLENIUM

image

Title: Hercules Reborn (2014)
Genres: Action , Adventure
Actors: John Hennigan , Christian Oliver , Christina Ulfsparre , James Duval , Dylan Vox , Ben Chagra Khalid , Alistair A. Duff , Foued Mansour , Jeremy M. Inman , Jennifer Marie Paul , Marcus Shirock , Aurelie Armelle Simone Chatellier , Rim Touassi , Yassine Amer , Youness Lahlafi
Runtime: 95
Year: 2014
Plot:
When a young man's bride is kidnapped by an evil king| he turns to Hercules for help. The fallen hero has been living in exile| banished for killing his family| but
the young man's courage inspires Hercules. Together| they fight to rescue the bride and reclaim the honor of Hercules. [mediainfo]


Format : AVI
Format/Info : Audio Video Interleave
File size : 1.38 GiB
Duration : 1h 34mn
Overall bit rate : 2 089 Kbps

Video
ID : 0
Format : MPEG-4 Visual
Format profile : Advanced Simple@L5
Format settings, BVOP : 2
Format settings, QPel : Yes
Format settings, GMC : No warppoints
Format settings, Matrix : Default (MPEG)
Codec ID : XVID
Codec ID/Hint : XviD
Duration : 1h 34mn
Bit rate : 1 698 Kbps
Width : 720 pixels
Height : 400 pixels
Display aspect ratio : 16:9
Frame rate : 23.976 fps
Color space : YUV
Chroma subsampling : 4:2:0
Bit depth : 8 bits
Scan type : Progressive
Compression mode : Lossy
Bits/(Pixel*Frame) : 0.246
Stream size : 1.12 GiB (81%)
Writing library : XviD 1.2.1 (UTC 2008-12-04)

Audio
ID : 1
Format : AC-3
Format/Info : Audio Coding 3
Mode extension : CM (complete main)
Format settings, Endianness : Big
Codec ID : 2000
Duration : 1h 34mn
Bit rate mode : Constant
Bit rate : 384 Kbps
Channel(s) : 6 channels
Channel positions : Front: L C R, Side: L R, LFE
Sampling rate : 48.0 KHz
Bit depth : 16 bits
Compression mode : Lossy
Stream size : 260 MiB (18%)
Alignment : Aligned on interleaves
Interleave, duration : 64 ms (1.53 video frames)
Interleave, preload duration : 192 ms

[/mediainfo]

TRACKERSEEDLEECHDOWNLOADED
http://mgtracker.org:2710/announce
udp://9.rarbg.me:2710/announce
udp://11.rarbg.me:80/announce
udp://10.rarbg.me:80/announce
udp://12.rarbg.me:80/announce
udp://9.rarbg.com:2710/announce
udp://open.demonii.com:1337/announce
udp://tracker.publicbt.com:80/announce
udp://tracker.istole.it:80/announce
udp://tracker.openbittorrent.com:80/announce
udp://tracker.istole.it:6969/announce
http://tracker.istole.it/announce
http://tracker.leechers-paradise.org:6969/announce
http://bt.careland.com.cn:6969/announce
http://tracker.trackerfix.com/announce
http://exodus.desync.com:6969/announce
http://9.rarbg.com:2710/announce
udp://tracker.ccc.de:80/announce
http://tracker.thepiratebay.org/announce
http://shadowshq.eddie4.nl:6969/announce
http://shadowshq.yi.org:6969/announce
http://www.eddie4.nl:6969/announce
http://eddie4.nl:6969/announce
udp://tracker-ccc.de:6969/announce
FILESIZE
Hercules.Reborn.2014..BRrip.Xvid.Ac3-MiLLENIUM.avi1.38 GB
RARBG.com.txt31 B
sample.avi60.29 MB

Related results

Date Title Size Files Seeds Leechs Category Health
Video(Movies) 1.44 GB 3 2014-07-12 2 1 100%
Video(Movies) 1.44 GB 4 2014-07-12 0 0 N/A

Login

Account deleting

Are you sure you want to delete your account?

WARNING: This action cannot be undone!!!