Login / Register
HDRiP

Dead.Snow.2.2014.720p.BRRip.x264.AC3-EVO

Category: Video
Type: Movies
Movie Title: Død Snø 2
Detected quality: HDRiP
Release date: 2014-02-13
Cast: Stig Frode Henriksen,Vegar Hoel,Charlotte Frogner,Ørjan Gamst,Ingrid Haas,Kristoffer Joner,Martin Starr,Carl-Magnus Adner,Derek Mears,Amrita Acharia,Christian Rubeck,Ingar Helge Gimle,Daniel Berge Halvorsen,Daniel Berge Halvorsen,Hallvard Holmen
Genre: Action, Comedy, Horror
External Links: IMDB
Director: Tommy Wirkola
Producers: Robert Jones,Wayne Marc Godfrey,Arnaud Lannic,Kjetil Omberg,Terje Strømstad,Kjartan Þór Þórðarson,Ragnar Agnarsson,Arnbjörg Hafliðadóttir
Writers: Vegar Hoel,Tommy Wirkola,Stig Frode Henriksen
Duration: 100
IMDB rating: 7.1 (7,984 votes)
Summary: If the worst day of your life consisted of accidentally killing your girlfriend with an axe, chain-sawing your own arm off, and watching in horror as your closest friends were devoured by a zombified Nazi battalion, you'd have to assume that things couldn't get much worse. In Martin's case, that was only the beginning.
Votes
Good: 0
Bad: 0
GoodBad
0
Seeders
1
Leechers

Added: 2014-07-13

Size: 2.56 GB

Health: 25%

Hash (Base16): 09B74F62F896C5D9E0E9950EB6B352BB381F5F3A

Hash (Base32): BG3U6YXYS3C5TYHJSUHLNM2SXM4B6XZ2

DownloadBookmark
^

Dead.Snow.2.2014.720p.BRRip.x264.AC3-EVO

image

Title: Dead Snow: Red vs. Dead (2014)
IMDB Rating: 7.6/10
Genres: Action , Comedy , Horror
Actors: Amrita Acharia , Carl-Magnus Adner , Jocelyn DeBoer , Laufey Elíasdóttir , Kristian Figenschow , Charlotte Frogner , Ørjan Gamst , Ingar Helge Gimle , Tage Guddingsmo , Tómas Þórhallur Guðmundsson , Ingrid Haas , Daniel Berge Halvorsen , Stig Frode Henriksen , Vegar Hoel , Hallvard Holmen
Runtime: 100
Year: 2014
Plot:
If the worst day of your life consisted of accidentally killing your girlfriend with an axe| chain-sawing your own arm off| and watching in horror as your closest
friends were devoured by a zombified Nazi battalion| you'd have to assume that things couldn't get much worse. In Martin's case| that was only the beginning.
[mediainfo]


Format : Matroska
Format version : Version 2
File size : 2.56 GiB
Duration : 1h 40mn
Overall bit rate : 3 636 Kbps
Writing application : HandBrake 0.9.9
Writing library : libmkv 0.6.5

Video
ID : 1
Format : AVC
Format/Info : Advanced Video Codec
Format profile : High@L4.1
Format settings, CABAC : Yes
Format settings, ReFrames : 4 frames
Codec ID : V_MPEG4/ISO/AVC
Duration : 1h 40mn
Bit rate : 3 200 Kbps
Width : 1 280 pixels
Height : 528 pixels
Display aspect ratio : 2.40:1
Frame rate mode : Constant
Frame rate : 24.000 fps
Color space : YUV
Chroma subsampling : 4:2:0
Bit depth : 8 bits
Scan type : Progressive
Bits/(Pixel*Frame) : 0.197
Stream size : 2.19 GiB (86%)
Writing library : x264 core 130 r2273 b3065e6
Encoding settings : cabac=1 / ref=1 / deblock=1:0:0 / analyse=0x3:0x113 / me=hex / subme=2 / psy=1 / psy_rd=1.00:0.00 / mixed_ref=0 / me_range=16 / chroma_me=1 / trellis=0 / 8x8dct=1 / cqm=0 / deadzone=21,11 / fast_pskip=1 / chroma_qp_offset=0 / threads=6 / lookahead_threads=2 / sliced_threads=0 / nr=0 / decimate=1 / interlaced=0 / bluray_compat=0 / constrained_intra=0 / bframes=3 / b_pyramid=2 / b_adapt=1 / b_bias=0 / direct=1 / weightb=1 / open_gop=0 / weightp=1 / keyint=240 / keyint_min=24 / scenecut=40 / intra_refresh=0 / rc_lookahead=10 / rc=abr / mbtree=1 / bitrate=3200 / ratetol=1.0 / qcomp=0.60 / qpmin=0 / qpmax=69 / qpstep=4 / vbv_maxrate=62500 / vbv_bufsize=78125 / nal_hrd=none / ip_ratio=1.40 / aq=1:1.00
Language : English
Default : Yes
Forced : No
Color primaries : BT.709
Transfer characteristics : BT.709
Matrix coefficients : BT.709

Audio
ID : 2
Format : AC-3
Format/Info : Audio Coding 3
Mode extension : CM (complete main)
Format settings, Endianness : Big
Codec ID : A_AC3
Duration : 1h 40mn
Bit rate mode : Constant
Bit rate : 448 Kbps
Channel(s) : 6 channels
Channel positions : Front: L C R, Side: L R, LFE
Sampling rate : 48.0 KHz
Bit depth : 16 bits
Compression mode : Lossy
Stream size : 323 MiB (12%)
Language : Norwegian
Default : Yes
Forced : No

[/mediainfo]

TRACKERSEEDLEECHDOWNLOADED
http://mgtracker.org:2710/announce
udp://9.rarbg.me:2710/announce
udp://11.rarbg.me:80/announce
udp://10.rarbg.me:80/announce
udp://12.rarbg.me:80/announce
udp://9.rarbg.com:2710/announce
udp://open.demonii.com:1337/announce
udp://tracker.publicbt.com:80/announce
udp://tracker.istole.it:80/announce
udp://tracker.openbittorrent.com:80/announce
udp://tracker.istole.it:6969/announce
http://tracker.istole.it/announce
http://tracker1.wasabii.com.tw:6969/announce
http://tracker.leechers-paradise.org:6969/announce
http://bt.careland.com.cn:6969/announce
http://tracker.trackerfix.com/announce
udp://tracker.ccc.de:80/announce
http://tracker.thepiratebay.org/announce
http://shadowshq.eddie4.nl:6969/announce
http://shadowshq.yi.org:6969/announce
http://www.eddie4.nl:6969/announce
http://eddie4.nl:6969/announce
http://www.elitezones.ro/announce.php
http://elitezones.ro/announce.php
udp://tracker-ccc.de:6969/announce
FILESIZE
Dead.Snow.2.2014.720p.BRRip.x264.AC3-EVO.mkv2.56 GB
Dead.Snow.2.2014.720p.BRRip.x264.AC3-EVO.nfo2.29 KB
RARBG.com.txt31 B

Related results

Date Title Size Files Seeds Leechs Category Health
Video(Movies) 2.06 GB 2 2014-07-04 2 1 100%
Video(Movies) 932.11 MB 2 2014-07-22 196 63 100%
Video(Movies) 1.96 GB 2 2014-07-31 8 1 100%
Video(Movies) 868.4 MB 2 2014-08-21 3 2 100%
Video(Movies) 1.84 GB 2 2014-08-21 5 2 100%
Video(Movies) 984.14 MB 2 2014-12-19 630 65 100%
Video(Movies) 1.65 GB 2 2015-02-04 12 3 100%
Video(Movies) 752.26 MB 2 2015-02-11 26 2 100%
Video(Movies) 1.85 GB 2 2015-02-11 126 30 100%

Login

Account deleting

Are you sure you want to delete your account?

WARNING: This action cannot be undone!!!