Login / Register
HDRiP

Dead.Snow.2.2014.480p.BRRip.XviD.AC3-EVO

Category: Video
Type: Movies
Movie Title: Død Snø 2
Detected quality: HDRiP
Release date: 2014-02-13
Cast: Stig Frode Henriksen,Vegar Hoel,Charlotte Frogner,Ørjan Gamst,Ingrid Haas,Kristoffer Joner,Martin Starr,Carl-Magnus Adner,Derek Mears,Amrita Acharia,Christian Rubeck,Ingar Helge Gimle,Daniel Berge Halvorsen,Daniel Berge Halvorsen,Hallvard Holmen
Genre: Action, Comedy, Horror
External Links: IMDB
Director: Tommy Wirkola
Producers: Robert Jones,Wayne Marc Godfrey,Arnaud Lannic,Kjetil Omberg,Terje Strømstad,Kjartan Þór Þórðarson,Ragnar Agnarsson,Arnbjörg Hafliðadóttir
Writers: Vegar Hoel,Tommy Wirkola,Stig Frode Henriksen
Duration: 100
IMDB rating: 7.1 (7,984 votes)
Summary: If the worst day of your life consisted of accidentally killing your girlfriend with an axe, chain-sawing your own arm off, and watching in horror as your closest friends were devoured by a zombified Nazi battalion, you'd have to assume that things couldn't get much worse. In Martin's case, that was only the beginning.
Votes
Good: 0
Bad: 0
GoodBad
1
Seeders
1
Leechers

Added: 2014-07-13

Size: 1.55 GB

Health: 25%

Hash (Base16): DD8F258C7EB6EE595D8B7A7307A26C7EF8620277

Hash (Base32): 3WHSLDD6W3XFSXMLPJZQPITMP34GEATX

DownloadBookmark
^

Dead.Snow.2.2014.480p.BRRip.XviD.AC3-EVO

image
[mediainfo]


Format : AVI
Format/Info : Audio Video Interleave
File size : 1.55 GiB
Duration : 1h 40mn
Overall bit rate : 2 206 Kbps
Writing library : VirtualDub build 32593/release

Video
ID : 0
Format : MPEG-4 Visual
Format profile : Advanced [email protected]
Format settings, BVOP : 2
Format settings, QPel : No
Format settings, GMC : No warppoints
Format settings, Matrix : Default (H.263)
Muxing mode : Packed bitstream
Codec ID : XVID
Codec ID/Hint : XviD
Duration : 1h 40mn
Bit rate : 1 748 Kbps
Width : 720 pixels
Height : 304 pixels
Display aspect ratio : 2.35:1
Frame rate : 24.000 fps
Color space : YUV
Chroma subsampling : 4:2:0
Bit depth : 8 bits
Scan type : Progressive
Compression mode : Lossy
Bits/(Pixel*Frame) : 0.333
Stream size : 1.23 GiB (79%)
Writing library : XviD 64

Audio
ID : 1
Format : AC-3
Format/Info : Audio Coding 3
Mode extension : CM (complete main)
Format settings, Endianness : Big
Codec ID : 2000
Duration : 1h 40mn
Bit rate mode : Constant
Bit rate : 448 Kbps
Channel(s) : 6 channels
Channel positions : Front: L C R, Side: L R, LFE
Sampling rate : 48.0 KHz
Bit depth : 16 bits
Compression mode : Lossy
Stream size : 323 MiB (20%)
Alignment : Aligned on interleaves
Interleave, duration : 42 ms (1.00 video frame)
Interleave, preload duration : 512 ms

[/mediainfo]

TRACKERSEEDLEECHDOWNLOADED
udp://tracker.coppersurfer.tk:6969/announce100
udp://mgtracker.org:2710/announce
udp://9.rarbg.me:2710/announce
udp://11.rarbg.me:80/announce
udp://10.rarbg.me:80/announce
udp://12.rarbg.me:80/announce
udp://9.rarbg.com:2710/announce
udp://open.demonii.com:1337/announce
udp://tracker.publicbt.com:80/announce
udp://tracker.istole.it:80/announce
udp://tracker.openbittorrent.com:80/announce
udp://tracker.istole.it:6969/announce
http://tracker.istole.it/announce
http://tracker.tfile.me/announce
http://tracker.trackerfix.com/announce
udp://tracker.ccc.de:80/announce
http://tracker.thepiratebay.org/announce
udp://tracker-ccc.de:6969/announce
http://www.les-renseignements-genereux.org:80/announce
FILESIZE
Dead.Snow.2.2014.480p.BRRip.XviD.AC3-EVO.avi1.55 GB
Dead.Snow.2.2014.480p.BRRip.XviD.AC3-EVO.nfo2.29 KB
RARBG.com.txt31 B
sample.avi1.12 MB

Related results

Date Title Size Files Seeds Leechs Category Health
Video(Movies) 932.11 MB 2 2014-07-22 227 64 100%
Video(Movies) 1.96 GB 2 2014-07-31 393 63 100%
Video(Movies) 1.65 GB 2 2014-08-21 25 3 100%
Video(Movies) 868.4 MB 2 2014-08-21 47 11 100%
Video(Movies) 1.84 GB 2 2014-08-21 246 27 100%
Video(Movies) 1.65 GB 2 2015-02-04 537 82 100%
Video(Movies) 818.62 MB 2 2015-02-10 247 24 100%
Video(Movies) 752.26 MB 2 2015-02-11 24 1 100%
Video(Movies) 1.85 GB 2 2015-02-11 133 18 100%

Login

Account deleting

Are you sure you want to delete your account?

WARNING: This action cannot be undone!!!