Login / Register

Appleseed.Alpha.2014.BRrip.Xvid.Ac3-MiLLENiUM

Category: Video
Type: Anime
Movie Title: Appleseed Alpha
Cast: David Matranga,Elizabeth Bunch,Wendel Calvert,Josh Sheltz,Luci Christian,Brina Palencia,Tesshô Genda,Junichi Suwabe,Hiroki Touchi,Hiroki Takahashi,Kaori Nazuka,Katsunosuke Hori,Aoi Yuki,Yuka Komatsu
Genre: Animation, Action, Sci-Fi
External Links: IMDB
Director: Shinji Aramaki
Producers: John Ledford,Joey Goubeaud,Daisuke Nagai,Eiichi Kamagata,Joseph Chou,Shigehito Kawada,Makiko Nagano,Max Nishi,Takashi Oya
Writers: Masamune Shirow,Marianne Krawczyk
Duration: 90
Summary: Based on the comic book by the creator of Ghost in the Shell, a young female soldier Deunan and her cyborg partner Briareos survive through the post World War 3 apocalyptic New York in search of human's future hope, the legendary city of Olympus.
Votes
Good: 0
Bad: 0
GoodBad
0
Seeders
1
Leechers

Added: 2014-07-13

Size: 1.4 GB

Health: 25%

Hash (Base16): CA5E3E9AE823968C79C36035792279A7E62F9543

Hash (Base32): ZJPD5GXIEOLIY6ODMA2XSITZU7TC7FKD

DownloadBookmark
^

Appleseed.Alpha.2014.BRrip.Xvid.Ac3-MiLLENiUM

image

Title: Appleseed Alpha (2014)
Genres: Animation , Action
Actors: Luci Christian , David Matranga , Brina Palencia , Elizabeth Bunch , Wendel Calvert , Adam Gibbs , Chris Hutchinson , Josh Sheltz
Runtime: 90
Year: 2014
Plot:
Based on the comic book by the creator of Ghost in the Shell| a young female soldier Deunan and her cyborg partner Briareos survive through the post World War 3
apocalyptic New York in search of human's future hope| the legendary city of Olympus. [mediainfo]


Format : AVI
Format/Info : Audio Video Interleave
File size : 1.36 GiB
Duration : 1h 33mn
Overall bit rate : 2 091 Kbps

Video
ID : 0
Format : MPEG-4 Visual
Format profile : Advanced [email protected]
Format settings, BVOP : 2
Format settings, QPel : Yes
Format settings, GMC : No warppoints
Format settings, Matrix : Default (MPEG)
Codec ID : XVID
Codec ID/Hint : XviD
Duration : 1h 33mn
Bit rate : 1 700 Kbps
Width : 720 pixels
Height : 416 pixels
Display aspect ratio : 1.731
Frame rate : 23.976 fps
Color space : YUV
Chroma subsampling : 4:2:0
Bit depth : 8 bits
Scan type : Progressive
Compression mode : Lossy
Bits/(Pixel*Frame) : 0.237
Stream size : 1.11 GiB (81%)
Writing library : XviD 1.2.1 (UTC 2008-12-04)

Audio
ID : 1
Format : AC-3
Format/Info : Audio Coding 3
Mode extension : CM (complete main)
Format settings, Endianness : Big
Codec ID : 2000
Duration : 1h 33mn
Bit rate mode : Constant
Bit rate : 384 Kbps
Channel(s) : 6 channels
Channel positions : Front: L C R, Side: L R, LFE
Sampling rate : 48.0 KHz
Bit depth : 16 bits
Compression mode : Lossy
Stream size : 256 MiB (18%)
Alignment : Aligned on interleaves
Interleave, duration : 64 ms (1.53 video frames)
Interleave, preload duration : 192 ms
Title : Appleseed.Alpha.2014.1080p.BluRay.x264-EVO - [0] English

[/mediainfo]

TRACKERSEEDLEECHDOWNLOADED
udp://9.rarbg.me:2710/announce
udp://11.rarbg.me:80/announce
udp://10.rarbg.me:80/announce
udp://12.rarbg.me:80/announce
udp://9.rarbg.com:2710/announce
udp://open.demonii.com:1337/announce
udp://tracker.publicbt.com:80/announce
udp://tracker.istole.it:80/announce
udp://tracker.openbittorrent.com:80/announce
udp://tracker.istole.it:6969/announce
http://tracker.istole.it/announce
http://tracker.trackerfix.com/announce
http://exodus.desync.com:6969/announce
udp://tracker.ccc.de:80/announce
http://tracker.thepiratebay.org/announce
udp://tracker-ccc.de:6969/announce
FILESIZE
Appleseed.Alpha.2014.BRrip.Xvid.Ac3-MiLLENiUM.avi1.36 GB
RARBG.com.txt31 B
sample.avi42.58 MB

Related results

Date Title Size Files Seeds Leechs Category Health
Video(Anime) 1.4 GB 4 2014-07-12 0 1 25%
Video(Movies) 1.4 GB 4 2014-07-13 0 1 25%
Video(Movies) 1.4 GB 4 2014-07-31 0 4 25%

Login

Account deleting

Are you sure you want to delete your account?

WARNING: This action cannot be undone!!!