Login / Register

Need.For.Speed.2014.720p.BluRay.x264-SPARKS

Category: Video
Type: Movies
Movie Title: District B13
Cast: Camille Delamarre,Luc Besson,Luc Besson,Bibi Naceri,Paul Walker,David Belle,RZA,Gouchy Boy,Catalina Denis,Ayisha Issa,Carlo Rota,Andreas Apergis,Richard Zeman,Robert Maillet,Bruce Ramsay,Frank Fontaine,Chimwemwe Miller,Bradshaw Anderson,Ryan Trudea
Genre: Action, Crime, Drama
Director: Camille Delamarre
Producer: Luc Besson
Writer: Luc Besson
Duration: 90
Summary: An undercover Detroit cop navigates a dangerous neighborhood that's surrounded by a containment wall with the help of an ex-con in order to bring down a crime lord and his plot to devastate the entire city.
Votes
Good: 0
Bad: 0
GoodBad
4
Seeders
2
Leechers

Added: 2014-07-12

Size: 5.46 GB

Health: 100%

Hash (Base16): 67981C20BA9BC9E7F08199A7E8F9D50EDC87F46D

Hash (Base32): M6MBYIF2TPE6P4EBTGT6R6OVB3OIP5DN

DownloadBookmark
^

Need.For.Speed.2014.720p.BluRay.x264-SPARKS

image

Title: Need for Speed (2014)
IMDB Rating: 7.2/10
Genres: Action , Crime , Drama , Thriller
Actors: Aaron Paul , Dominic Cooper , Imogen Poots , Scott Mescudi , Rami Malek , Ramon Rodriguez , Harrison Gilbertson , Dakota Johnson , Stevie Ray Dallimore , Michael Keaton , Alan Pflueger , Brian L. Keaulana , Logan Holladay , Carmela Zumbado , Jalil Jay Lynch
Runtime: 132
Year: 2014
Plot:
Framed by an ex-partner for a murder he did not commit| Tobey Marshall| a financially struggling custom-car builder and street-racer| spends two years in jail
thinking about one moment. Fresh out of prison he reacquires the fastest car his workshop ever built and sold| and seeks to enter a secretive and extremely
high-stakes race known as The DeLeon. His purpose; redemption| recognition from the world of racing and to solve his problems. Yet all this fades in comparison to
his driving reason. Revenge. Above all| revenge. This is a story about love| redemption| revenge and motor oil all swirled together| but above all; It's a story
about fast| fast cars.


Screenshots:
image

Need.For.Speed.2014.720p.BluRay.x264-SPARKS

Release.Date: 12.07.2014
Video.......: X264 4471Kbps
Frame.Rate..: 23.976
Resolution..: 1280x536
Audio.......: DTS 1509Kbps 6ch
Language....: English
Length......: 2h 10mn
Source......: Retail BluRay
Size........: 5593MB
Subtitles...: English, Korean, Chinese, Thai, Indonesian, Malay

IMDb: http://www.imdb.com/title/tt2369135

ALLiANCE - iMARS

ASCii/NFO: pH7 of SiLK



[mediainfo]
Video
ID : 1
Format : AVC
Format/Info : Advanced Video Codec
Format profile : [email protected]
Format settings, CABAC : Yes
Format settings, ReFrames : 5 frames
Codec ID : V_MPEG4/ISO/AVC
Duration : 2h 10mn
Bit rate : 4 471 Kbps
Width : 1 280 pixels
Height : 536 pixels
Display aspect ratio : 2.40:1
Frame rate mode : Constant
Frame rate : 23.976 fps
Color space : YUV
Chroma subsampling : 4:2:0
Bit depth : 8 bits
Scan type : Progressive
Bits/(Pixel*Frame) : 0.272
Stream size : 3.98 GiB (73%)
Writing library : x264 core 142 r2431 ac76440
Encoding settings : cabac=1 / ref=5 / deblock=1:0:0 / analyse=0x3:0x133 / me=umh / subme=7 / psy=1 / psy_rd=1.00:0.00 / mixed_ref=1 / me_range=16 / chroma_me=1 / trellis=1 / 8x8dct=1 / cqm=0 / deadzone=21,11 / fast_pskip=0 / chroma_qp_offset=-2 / threads=18 / lookahead_threads=3 / sliced_threads=0 / nr=0 / decimate=1 / interlaced=0 / bluray_compat=0 / constrained_intra=0 / bframes=3 / b_pyramid=2 / b_adapt=1 / b_bias=0 / direct=1 / weightb=1 / open_gop=0 / weightp=2 / keyint=250 / keyint_min=23 / scenecut=40 / intra_refresh=0 / rc_lookahead=40 / rc=2pass / mbtree=1 / bitrate=4471 / ratetol=1.0 / qcomp=0.60 / qpmin=0 / qpmax=69 / qpstep=4 / cplxblur=20.0 / qblur=0.5 / ip_ratio=1.40 / aq=1:1.00
Language : English
Default : Yes
Forced : No

Audio
ID : 2
Format : DTS
Format/Info : Digital Theater Systems
Mode : 16
Format settings, Endianness : Big
Codec ID : A_DTS
Duration : 2h 10mn
Bit rate mode : Constant
Bit rate : 1 509 Kbps
Channel(s) : 6 channels
Channel positions : Front: L C R, Side: L R, LFE
Sampling rate : 48.0 KHz
Bit depth : 24 bits
Compression mode : Lossy
Stream size : 1.38 GiB (25%)
Language : English
Default : Yes
Forced : No

Menu
00:00:00.000 : en:00:00:00.000
00:03:54.734 : en:00:03:54.734
00:07:49.761 : en:00:07:49.761
00:14:28.034 : en:00:14:28.034
00:20:43.534 : en:00:20:43.534
00:26:18.160 : en:00:26:18.160
00:28:45.974 : en:00:28:45.974
00:37:46.473 : en:00:37:46.473
00:42:07.608 : en:00:42:07.608
00:50:33.614 : en:00:50:33.614
00:56:00.482 : en:00:56:00.482
01:05:09.864 : en:01:05:09.864
01:12:09.325 : en:01:12:09.325
01:18:21.030 : en:01:18:21.030
01:25:07.144 : en:01:25:07.144
01:32:55.653 : en:01:32:55.653
01:36:38.084 : en:01:36:38.084
01:39:49.442 : en:01:39:49.442
01:49:47.873 : en:01:49:47.873
01:55:41.685 : en:01:55:41.685
02:02:22.752 : en:02:02:22.752


[/mediainfo]

TRACKERSEEDLEECHDOWNLOADED
udp://9.rarbg.me:2710/announce
udp://11.rarbg.me:80/announce
udp://10.rarbg.me:80/announce
udp://12.rarbg.me:80/announce
udp://9.rarbg.com:2710/announce
udp://open.demonii.com:1337/announce
udp://tracker.publicbt.com:80/announce
udp://tracker.istole.it:80/announce
udp://tracker.openbittorrent.com:80/announce
udp://tracker.istole.it:6969/announce
http://tracker.istole.it/announce
http://tracker.trackerfix.com/announce
udp://tracker.ccc.de:80/announce
http://tracker.thepiratebay.org/announce
FILESIZE
Need.For.Speed.2014.720p.BluRay.x264-SPARKS.mkv5.46 GB
RARBG.com.txt31 B
need.for.speed.2014.720p.bluray.x264-sparks.nfo4.26 KB

Related results

Date Title Size Files Seeds Leechs Category Health
Video(Movies) 9.94 GB 5 2014-07-11 1 3 25%
Video(Movies) 5.56 GB 6 2014-07-11 0 1 25%
Video(Movies) 5.46 GB 2 2014-07-12 0 1 25%
Video(Movies) 9.89 GB 77 2014-07-11 0 1 25%
Video(Movies) 5.49 GB 4 2014-07-11 0 1 25%

Login

Account deleting

Are you sure you want to delete your account?

WARNING: This action cannot be undone!!!