Login / Register

Appleseed.Alpha.2014.BRRip.XviD.MP3-RARBG

Category: Video
Type: Anime
Movie Title: Appleseed Alpha
Cast: David Matranga,Elizabeth Bunch,Wendel Calvert,Josh Sheltz,Luci Christian,Brina Palencia,Tesshô Genda,Junichi Suwabe,Hiroki Touchi,Hiroki Takahashi,Kaori Nazuka,Katsunosuke Hori,Aoi Yuki,Yuka Komatsu
Genre: Animation, Action, Sci-Fi
External Links: IMDB
Director: Shinji Aramaki
Producers: John Ledford,Joey Goubeaud,Daisuke Nagai,Eiichi Kamagata,Joseph Chou,Shigehito Kawada,Makiko Nagano,Max Nishi,Takashi Oya
Writers: Masamune Shirow,Marianne Krawczyk
Duration: 90
Summary: Based on the comic book by the creator of Ghost in the Shell, a young female soldier Deunan and her cyborg partner Briareos survive through the post World War 3 apocalyptic New York in search of human's future hope, the legendary city of Olympus.
Votes
Good: 0
Bad: 0
GoodBad
1
Seeders
0
Leechers

Added: 2014-07-13

Size: 891.81 MB

Health: 25%

Hash (Base16): B2FD0A73B1A80464E3F440BA5AA0D2F405738A57

Hash (Base32): WL6QU45RVACGJY7UIC5FVIGS6QCXHCSX

DownloadBookmark
^

Appleseed.Alpha.2014.BRRip.XviD.MP3-RARBG

image

Title: Appleseed Alpha (2014)
Genres: Animation , Action
Actors: Luci Christian , David Matranga , Brina Palencia , Elizabeth Bunch , Wendel Calvert , Adam Gibbs , Chris Hutchinson , Josh Sheltz
Runtime: 90
Year: 2014
Plot:
Based on the comic book by the creator of Ghost in the Shell| a young female soldier Deunan and her cyborg partner Briareos survive through the post World War 3
apocalyptic New York in search of human's future hope| the legendary city of Olympus.


Appleseed.Alpha.2014.BRRip.XviD.MP3-RARBG

http://www.imdb.com/title/tt3638012/

Screens:
image
image
image
image
image
image

Info:

[mediainfo]

Format : AVI
Format/Info : Audio Video Interleave
File size : 891 MiB
Duration : 1h 33mn
Overall bit rate : 1 335 Kbps
Movie name : RARBG.COM - Appleseed.Alpha.2014.BRRip.XviD.MP3-RARBG
Writing library : VirtualDub build 35491/release
Comment : RARBG.COM - Appleseed.Alpha.2014.BRRip.XviD.MP3-RARBG

Video
ID : 0
Format : MPEG-4 Visual
Format profile : [email protected]
Format settings, BVOP : No
Format settings, QPel : No
Format settings, GMC : No warppoints
Format settings, Matrix : Default (H.263)
Codec ID : XVID
Codec ID/Hint : XviD
Duration : 1h 33mn
Bit rate : 1 195 Kbps
Width : 720 pixels
Height : 402 pixels
Display aspect ratio : 16:9
Frame rate : 23.976 fps
Color space : YUV
Chroma subsampling : 4:2:0
Bit depth : 8 bits
Scan type : Progressive
Compression mode : Lossy
Bits/(Pixel*Frame) : 0.172
Stream size : 797 MiB (89%)
Writing library : Lavc55.61.100

Audio
ID : 1
Format : MPEG Audio
Format version : Version 1
Format profile : Layer 3
Mode : Joint stereo
Codec ID : 55
Codec ID/Hint : MP3
Duration : 1h 33mn
Bit rate mode : Constant
Bit rate : 128 Kbps
Channel(s) : 2 channels
Sampling rate : 48.0 KHz
Compression mode : Lossy
Stream size : 85.4 MiB (10%)
Alignment : Aligned on interleaves
Interleave, duration : 24 ms (0.58 video frame)
Interleave, preload duration : 504 ms
Writing library : LAME3.99.5UUUUUU»fÄj



[/mediainfo]

Notes:
Greetz to everyone :)

TRACKERSEEDLEECHDOWNLOADED
udp://9.rarbg.me:2710/announce
udp://11.rarbg.me:80/announce
udp://10.rarbg.me:80/announce
udp://12.rarbg.me:80/announce
udp://9.rarbg.com:2710/announce
udp://open.demonii.com:1337/announce
udp://tracker.publicbt.com:80/announce
udp://tracker.istole.it:80/announce
udp://tracker.openbittorrent.com:80/announce
udp://tracker.istole.it:6969/announce
http://tracker.istole.it/announce
http://tracker.trackerfix.com/announce
udp://tracker.ccc.de:80/announce
http://tracker.thepiratebay.org/announce
udp://tracker-ccc.de:6969/announce
FILESIZE
Appleseed.Alpha.2014.BRRip.XviD.MP3-RARBG.avi890.67 MB
RARBG.com.avi1.14 MB
Appleseed.Alpha.2014.BRRip.XviD.MP3-RARBG.nfo3.12 KB
RARBG.com.txt31 B

Related results

Date Title Size Files Seeds Leechs Category Health
Video(Anime) 2.89 GB 4 2014-07-12 0 1 25%
Video(Anime) 1.08 GB 4 2014-07-12 0 1 25%

Login

Account deleting

Are you sure you want to delete your account?

WARNING: This action cannot be undone!!!