Login / Register

Generation.Iron.2013.BRRip.XviD.MP3-RARBG

Category: Video
Type: Movies
Movie Title: Generation Iron
Cast: Larry Leichliter,Elizabeth Ito,Adam Muto,Nate Cash,David O'Reilly,Masaaki Yuasa,Pendleton Ward,Kent Osborne,Patrick McHale,Mark Banker,Adam Muto,Merriwether Williams,Rebecca Sugar,Cole Sanchez,Timothy McKeon,Tom Herpich,Somvilay Xayaphone,Ako Castuer
Genre: Documentary, Drama, Sport
External Links: IMDB
Director: Vlad Yudin
Producers: Jerome Gary,Vlad Yudin,Edwin Mejia
Writer: Vlad Yudin
Duration: 106
Summary: A documentary that follows top bodybuilders as they train to compete in the Mr. Olympia competition.
Votes
Good: 0
Bad: 0
GoodBad
1
Seeders
0
Leechers

Added: 2014-07-13

Size: 1 GB

Health: 25%

Hash (Base16): 6BBBA7F4D6FCB3304A83A25537F4235331B1CB4F

Hash (Base32): NO52P5GW7SZTASUDUJKTP5BDKMY3DS2P

DownloadBookmark
^

Generation.Iron.2013.BRRip.XviD.MP3-RARBG

image

Title: Generation Iron (2013)
IMDB Rating: 7.4/10
Genres: Documentary , Drama , Sport
Actors: Arnold Schwarzenegger , Mickey Rourke , Michael Jai White , Lou Ferrigno , Busta Rhymes , Phil Heath , Kai Greene , Jay Cutler , Dennis Wolf , Mike Katz , Ronnie Coleman , Roelly Winklaar , Hidetada Yamagishi , Ben Pakulski , Bob Cicherillo
Runtime: 106
Year: 2013
Plot:
From the producer of the original classic Pumping Iron'| comes "Generation Iron" the long awaited true story of dedication| rivalry| victory| defeat| redemption and
triumph... The film examines the professional sport of bodybuilding today and gives us access to the lives of current bodybuilding stars Phil Heath| Kai Greene|
Branch Warren| Dennis Wolf| Victor Martinez| Hidetada Yamagishi as well as ambitious newcomer Ben Pakulski and European sensation Roelly Winklaar on their journey to
be crowned Mr. Olympia.


Generation.Iron.2013.BRRip.XviD.MP3-RARBG

http://www.imdb.com/title/tt2205904/

Screens:
image
image
image
image
image
image

Info:

[mediainfo]

Format : AVI
Format/Info : Audio Video Interleave
File size : 1.00 GiB
Duration : 1h 47mn
Overall bit rate : 1 341 Kbps
Movie name : RARBG.COM - Generation.Iron.2013.BRRip.XviD.MP3-RARBG
Writing library : VirtualDub build 35491/release
Comment : RARBG.COM - Generation.Iron.2013.BRRip.XviD.MP3-RARBG

Video
ID : 0
Format : MPEG-4 Visual
Format profile : [email protected]
Format settings, BVOP : No
Format settings, QPel : No
Format settings, GMC : No warppoints
Format settings, Matrix : Default (H.263)
Codec ID : XVID
Codec ID/Hint : XviD
Duration : 1h 47mn
Bit rate : 1 200 Kbps
Width : 720 pixels
Height : 402 pixels
Display aspect ratio : 16:9
Frame rate : 23.976 fps
Color space : YUV
Chroma subsampling : 4:2:0
Bit depth : 8 bits
Scan type : Progressive
Compression mode : Lossy
Bits/(Pixel*Frame) : 0.173
Stream size : 920 MiB (90%)
Writing library : Lavc55.61.100

Audio
ID : 1
Format : MPEG Audio
Format version : Version 1
Format profile : Layer 3
Mode : Joint stereo
Mode extension : MS Stereo
Codec ID : 55
Codec ID/Hint : MP3
Duration : 1h 47mn
Bit rate mode : Constant
Bit rate : 128 Kbps
Channel(s) : 2 channels
Sampling rate : 48.0 KHz
Compression mode : Lossy
Stream size : 98.1 MiB (10%)
Alignment : Aligned on interleaves
Interleave, duration : 24 ms (0.58 video frame)
Interleave, preload duration : 504 ms
Writing library : LAME3.99.5


[/mediainfo]

Notes:
Greetz to everyone :)

TRACKERSEEDLEECHDOWNLOADED
udp://tracker.coppersurfer.tk:6969/announce
http://mgtracker.org:2710/announce
udp://mgtracker.org:2710/announce
udp://9.rarbg.me:2710/announce
udp://11.rarbg.me:80/announce
udp://10.rarbg.me:80/announce
udp://12.rarbg.me:80/announce
udp://9.rarbg.com:2710/announce
udp://open.demonii.com:1337/announce
udp://tracker.publicbt.com:80/announce
udp://tracker.istole.it:80/announce
udp://tracker.openbittorrent.com:80/announce
udp://tracker.istole.it:6969/announce
http://tracker.istole.it/announce
http://tracker1.wasabii.com.tw:6969/announce
http://tracker.trackerfix.com/announce
udp://tracker.ccc.de:80/announce
http://tracker.thepiratebay.org/announce
http://shadowshq.yi.org:6969/announce
http://eddie4.nl:6969/announce
udp://tracker-ccc.de:6969/announce
FILESIZE
Generation.Iron.2013.BRRip.XviD.MP3-RARBG.avi1 GB
RARBG.com.avi1.14 MB
Generation.Iron.2013.BRRip.XviD.MP3-RARBG.nfo3.25 KB
RARBG.com.txt31 B

Related results

Date Title Size Files Seeds Leechs Category Health
Video(Movies) 1.24 GB 4 2014-07-12 1 0 25%
Video(Movies) 3.33 GB 4 2014-07-12 1 0 25%

Login

Account deleting

Are you sure you want to delete your account?

WARNING: This action cannot be undone!!!