Login / Register
HDRiP

Muppets.Most.Wanted.2014.BRRip.XviD.MP3-RARBG

Category: Video
Type: Movies
Language: English
Movie Title: Muppets Most Wanted
Detected quality: HDRiP
Release date: 2014-03-20
Cast: Ty Burrell,Steve Whitmire,Eric Jacobson,Dave Goelz,Bill Barretta,David Rudman,Matt Vogel,Peter Linz,Zach Galifianakis,Tom Hiddleston,James McAvoy,Chloë Grace Moretz,Stanley Tucci,Christoph Waltz,Louise Gold,Lee Bainbridge,Ray Liotta,Céline Dion
Genre: Adventure, Comedy, Crime
External Links: IMDB
Director: James Bobin
Producers: Bill Barretta,David Hoberman,John G. Scotti,Angus More Gordon,Denis Pedregosa,Nicholas Stoller,Todd Lieberman,Bill Barretta
Writers: Jim Henson,James Bobin,Nicholas Stoller
Duration: 107
IMDB rating: 6.5 (17,242 votes)
Summary: A human boy named Finn and his best friend Jake, a magical, talking dog, set out on their adventures in the magical Land of Ooo.
Votes
Good: 0
Bad: 0
GoodBad
1
Seeders
0
Leechers

Added: 2014-07-12

Size: 1.35 GB

Health: 25%

Hash (Base16): EB6BA9CF3F03415FF718D4BB23FB2FD1009D865E

Hash (Base32): 5NV2TTZ7ANAV75YY2S5SH6ZP2EAJ3BS6

DownloadBookmark
^

Muppets.Most.Wanted.2014.BRRip.XviD.MP3-RARBG

image

Title: Muppets Most Wanted (2014)
IMDB Rating: 6.9/10
Genres: Adventure , Comedy , Crime , Family , Musical
Actors: Ricky Gervais , Ty Burrell , Tina Fey , Steve Whitmire , Eric Jacobson , Dave Goelz , Bill Barretta , David Rudman , Matt Vogel , Peter Linz , Tony Bennett , Hugh Bonneville , William Brand , Andrés Cantor , Jemaine Clement
Runtime: 107
Year: 2014
Plot:
Flush with their revival's success| Kermit the Frog and his friends are approached by Dominic Badguy to go on a world tour. Unknown to them| this is all part of the
sinister plan of Constantine| the world's most evil frog| to become the greatest thief of all time. After making sure that Kermit is jailed as himself| Constantine
impersonates him to use the Muppets' tour as cover for his scheme. While Sam the Eagle and Inspector Jean Pierre Napoleon investigate| the Muppets find their boss
seems strangely changed even as Kermit desperately attempts to escape to stop the impostor. Only when Walter| Fozzie and Animal realize the truth is there a chance
to prevent Constantine from pulling off the crime of the century.


Muppets.Most.Wanted.2014.BRRip.XviD.MP3-RARBG

http://imdb.com/title/tt2281587/

Screens:
image
image
image
image
image
image

Info:

[mediainfo]

Format : AVI
Format/Info : Audio Video Interleave
File size : 1.35 GiB
Duration : 1h 47mn
Overall bit rate : 1 803 Kbps
Movie name : RARBG.COM - Muppets.Most.Wanted.2014.BRRip.XviD.MP3-RARBG
Writing library : VirtualDub build 35491/release
Comment : RARBG.COM - Muppets.Most.Wanted.2014.BRRip.XviD.MP3-RARBG

Video
ID : 0
Format : MPEG-4 Visual
Format profile : Simple@L5
Format settings, BVOP : No
Format settings, QPel : No
Format settings, GMC : No warppoints
Format settings, Matrix : Default (H.263)
Codec ID : XVID
Codec ID/Hint : XviD
Duration : 1h 47mn
Bit rate : 1 598 Kbps
Width : 720 pixels
Height : 406 pixels
Display aspect ratio : 16:9
Frame rate : 23.976 fps
Color space : YUV
Chroma subsampling : 4:2:0
Bit depth : 8 bits
Scan type : Progressive
Compression mode : Lossy
Bits/(Pixel*Frame) : 0.228
Stream size : 1.20 GiB (89%)
Writing library : Lavc55.61.100

Audio
ID : 1
Format : MPEG Audio
Format version : Version 1
Format profile : Layer 3
Mode : Joint stereo
Codec ID : 55
Codec ID/Hint : MP3
Duration : 1h 47mn
Bit rate mode : Constant
Bit rate : 192 Kbps
Channel(s) : 2 channels
Sampling rate : 48.0 KHz
Compression mode : Lossy
Stream size : 147 MiB (11%)
Alignment : Aligned on interleaves
Interleave, duration : 24 ms (0.58 video frame)
Interleave, preload duration : 504 ms


[/mediainfo]

Notes:
Greetz to everyone :)

TRACKERSEEDLEECHDOWNLOADED
udp://9.rarbg.me:2710/announce
udp://11.rarbg.me:80/announce
udp://10.rarbg.me:80/announce
udp://12.rarbg.me:80/announce
udp://9.rarbg.com:2710/announce
udp://open.demonii.com:1337/announce
udp://tracker.publicbt.com:80/announce
udp://tracker.istole.it:80/announce
udp://tracker.openbittorrent.com:80/announce
udp://tracker.istole.it:6969/announce
http://tracker.istole.it/announce
http://tracker.trackerfix.com/announce
http://9.rarbg.com:2710/announce
udp://tracker.ccc.de:80/announce
http://tracker.thepiratebay.org/announce
udp://tracker-ccc.de:6969/announce
FILESIZE
Muppets.Most.Wanted.2014.BRRip.XviD.MP3-RARBG.avi1.35 GB
RARBG.com.avi1.14 MB
Muppets.Most.Wanted.2014.BRRip.XviD.MP3-RARBG.nfo3.06 KB
RARBG.com.txt31 B

Related results

Date Title Size Files Seeds Leechs Category Health
Video(Movies) 1.54 GB 4 2014-07-11 0 1 25%
Video(Movies) 3.33 GB 4 2014-07-11 0 1 25%

Login

Account deleting

Are you sure you want to delete your account?

WARNING: This action cannot be undone!!!