Login / Register
HDRiP

Need.For.Speed.2014.BRRip.XviD.MP3-RARBG

Category: Video
Type: Movies
Language: English
Movie Title: Adventure Time
Detected quality: HDRiP
Release date: 2014-03-13
Cast: Larry Leichliter,Elizabeth Ito,Adam Muto,Nate Cash,David O'Reilly,Masaaki Yuasa,Pendleton Ward,Kent Osborne,Patrick McHale,Mark Banker,Adam Muto,Merriwether Williams,Rebecca Sugar,Cole Sanchez,Timothy McKeon,Tom Herpich,Somvilay Xayaphone,Ako Castuer
Genre: Animation, Adventure, Comedy
External Links: IMDB
Director: Larry Leichliter
Producer: Derek Drymon
Writer: Mark Banker
Duration: 11
IMDB rating: 6.6 (105,468 votes)
Summary: A human boy named Finn and his best friend Jake, a magical, talking dog, set out on their adventures in the magical Land of Ooo.
Votes
Good: 0
Bad: 0
GoodBad
0
Seeders
1
Leechers

Added: 2014-07-12

Size: 1.64 GB

Health: 25%

Hash (Base16): 8BC38264A2F5A9457AB59B307976EEF6E3E99647

Hash (Base32): RPBYEZFC6WUUK6VVTMYHS5XO63R6TFSH

DownloadBookmark
^

Need.For.Speed.2014.BRRip.XviD.MP3-RARBG

image

Title: Need for Speed (2014)
IMDB Rating: 7.2/10
Genres: Action , Crime , Drama , Thriller
Actors: Aaron Paul , Dominic Cooper , Imogen Poots , Scott Mescudi , Rami Malek , Ramon Rodriguez , Harrison Gilbertson , Dakota Johnson , Stevie Ray Dallimore , Michael Keaton , Alan Pflueger , Brian L. Keaulana , Logan Holladay , Carmela Zumbado , Jalil Jay Lynch
Runtime: 132
Year: 2014
Plot:
Framed by an ex-partner for a murder he did not commit| Tobey Marshall| a financially struggling custom-car builder and street-racer| spends two years in jail
thinking about one moment. Fresh out of prison he reacquires the fastest car his workshop ever built and sold| and seeks to enter a secretive and extremely
high-stakes race known as The DeLeon. His purpose; redemption| recognition from the world of racing and to solve his problems. Yet all this fades in comparison to
his driving reason. Revenge. Above all| revenge. This is a story about love| redemption| revenge and motor oil all swirled together| but above all; It's a story
about fast| fast cars.


Need.For.Speed.2014.BRRip.XviD.MP3-RARBG

http://imdb.com/title/tt2369135/
Screens:
image
image
image
image
image
image

Info:

[mediainfo]

Format : AVI
Format/Info : Audio Video Interleave
File size : 1.64 GiB
Duration : 2h 10mn
Overall bit rate : 1 801 Kbps
Movie name : RARBG.COM - Need.For.Speed.2014.BRRip.XviD.MP3-RARBG
Writing library : VirtualDub build 35491/release
Comment : RARBG.COM - Need.For.Speed.2014.BRRip.XviD.MP3-RARBG

Video
ID : 0
Format : MPEG-4 Visual
Format profile : Simple@L5
Format settings, BVOP : No
Format settings, QPel : No
Format settings, GMC : No warppoints
Format settings, Matrix : Default (H.263)
Codec ID : XVID
Codec ID/Hint : XviD
Duration : 2h 10mn
Bit rate : 1 597 Kbps
Width : 720 pixels
Height : 300 pixels
Display aspect ratio : 2.40:1
Frame rate : 23.976 fps
Color space : YUV
Chroma subsampling : 4:2:0
Bit depth : 8 bits
Scan type : Progressive
Compression mode : Lossy
Bits/(Pixel*Frame) : 0.308
Stream size : 1.46 GiB (89%)
Writing library : Lavc55.61.100

Audio
ID : 1
Format : MPEG Audio
Format version : Version 1
Format profile : Layer 3
Mode : Joint stereo
Mode extension : MS Stereo
Codec ID : 55
Codec ID/Hint : MP3
Duration : 2h 10mn
Bit rate mode : Constant
Bit rate : 192 Kbps
Channel(s) : 2 channels
Sampling rate : 48.0 KHz
Compression mode : Lossy
Stream size : 180 MiB (11%)
Alignment : Aligned on interleaves
Interleave, duration : 24 ms (0.58 video frame)
Interleave, preload duration : 504 ms


[/mediainfo]

Notes:
Greetz to everyone :)

TRACKERSEEDLEECHDOWNLOADED
http://mgtracker.org:2710/announce
udp://9.rarbg.me:2710/announce
udp://11.rarbg.me:80/announce
udp://10.rarbg.me:80/announce
udp://12.rarbg.me:80/announce
udp://9.rarbg.com:2710/announce
udp://open.demonii.com:1337/announce
udp://tracker.publicbt.com:80/announce
udp://tracker.istole.it:80/announce
udp://tracker.openbittorrent.com:80/announce
udp://tracker.istole.it:6969/announce
http://tracker.istole.it/announce
http://tracker1.wasabii.com.tw:6969/announce
http://tracker.trackerfix.com/announce
udp://tracker.ccc.de:80/announce
http://tracker.thepiratebay.org/announce
http://121.14.98.151:9090/announce
FILESIZE
Need.For.Speed.2014.BRRip.XviD.MP3-RARBG.avi1.64 GB
RARBG.com.avi1.14 MB
Need.For.Speed.2014.BRRip.XviD.MP3-RARBG.nfo3.1 KB
RARBG.com.txt31 B

Related results

Date Title Size Files Seeds Leechs Category Health
Video(Movies) 1.88 GB 4 2014-07-11 1 0 25%
Video(Movies) 4.05 GB 4 2014-07-11 0 1 25%

Login

Account deleting

Are you sure you want to delete your account?

WARNING: This action cannot be undone!!!