Login / Register
Telecine

Edge.of.Tomorrow.2014.TC.HC.XviD.MP3-RARBG

Category: Video
Type: Movies
Language: English
Movie Title: Edge of Tomorrow
Detected quality: Telecine
Release date: 2014-06-05
Cast: Tom Cruise,Emily Blunt,Brendan Gleeson,Bill Paxton,Jonas Armstrong,Tony Way,Kick Gurry,Franz Drameh,Laurent Plancel,Charlotte Riley,Noah Taylor,Natasha Goulden,Jeremy Piven,Marianne Jean-Baptiste,Lara Pulver,David Kaye,Terence Maynard,Philip Harvey
Genre: Action, Adventure, Sci-Fi
External Links: IMDB
Director: Doug Liman
Producers: Bruce Berman,Jeffrey Silver,Tim Lewis,Kim H. Winther,Tom Lassally,Gregory Jacobs,Erwin Stoff,Doug Liman,Greg Silverman,Joby Harold,Jon Berg,Jason Hoffs,David Bartis,Hidemi Fukuhara
Writers: Christopher McQuarrie,Jez Butterworth,John-Henry Butterworth,Hiroshi Sakurazaka
Duration: 113
IMDB rating: 8.0 (267,298 votes)
Summary: A military officer is brought into an alien war against an extraterrestrial enemy who can reset the day and know the future. When this officer is enabled with the same power, he teams up with a Special Forces warrior to try and end the war.
Votes
Good: 0
Bad: 0
GoodBad
3
Seeders
0
Leechers

Added: 2014-07-09

Size: 2.04 GB

Health: 100%

Hash (Base16): AAB727A3F68980AD84B732162329B021EB13E07E

Hash (Base32): VK3SPI7WRGAK3BFXGILCGKNQEHVRHYD6

DownloadBookmark
^

Edge.of.Tomorrow.2014.TC.HC.XviD.MP3-RARBG

image

Title: Edge of Tomorrow (2014)
IMDB Rating: 8.1/10
Genres: Action
Actors: Tom Cruise , Emily Blunt , Brendan Gleeson , Bill Paxton , Jonas Armstrong , Tony Way , Kick Gurry , Franz Drameh , Dragomir Mrsic , Charlotte Riley , Masayoshi Haneda , Terence Maynard , Noah Taylor , Lara Pulver , Madeleine Mantock
Runtime: 113
Year: 2014
Plot:
An alien race has hit the Earth in an unrelenting assault| unbeatable by any military unit in the world. Major William Cage (Cruise) is an officer who has never seen
a day of combat when he is unceremoniously dropped into what amounts to a suicide mission. Killed within minutes| Cage now finds himself inexplicably thrown into a
time loop-forcing him to live out the same brutal combat over and over| fighting and dying again...and again. But with each battle| Cage becomes able to engage the
adversaries with increasing skill| alongside Special Forces warrior Rita Vrataski (Blunt). And| as Cage and Vrataski take the fight to the aliens| each repeated
encounter gets them one step closer to defeating the enemy.


Edge.of.Tomorrow.2014.TC.HC.XviD.MP3-RARBG

http://imdb.com/title/tt1631867/

Screens:
image
image
image
image
image
image
image
image
image
image
image

Info:

[mediainfo]

Format : AVI
Format/Info : Audio Video Interleave
Format profile : OpenDML
File size : 2.04 GiB
Duration : 1h 47mn
Overall bit rate : 2 706 Kbps
Movie name : RARBG.COM - Edge.of.Tomorrow.2014.TC.HC.XviD.MP3-RARBG
Writing library : VirtualDub build 35491/release
Comment : RARBG.COM - Edge.of.Tomorrow.2014.TC.HC.XviD.MP3-RARBG

Video
ID : 0
Format : MPEG-4 Visual
Format profile : [email protected]
Format settings, BVOP : No
Format settings, QPel : No
Format settings, GMC : No warppoints
Format settings, Matrix : Default (H.263)
Codec ID : XVID
Codec ID/Hint : XviD
Duration : 1h 47mn
Bit rate : 2 497 Kbps
Width : 1 280 pixels
Height : 544 pixels
Display aspect ratio : 2.35:1
Frame rate : 25.000 fps
Color space : YUV
Chroma subsampling : 4:2:0
Bit depth : 8 bits
Scan type : Progressive
Compression mode : Lossy
Bits/(Pixel*Frame) : 0.143
Stream size : 1.88 GiB (92%)
Writing library : Lavc55.61.100

Audio
ID : 1
Format : MPEG Audio
Format version : Version 1
Format profile : Layer 3
Mode : Joint stereo
Mode extension : MS Stereo
Codec ID : 55
Codec ID/Hint : MP3
Duration : 1h 47mn
Bit rate mode : Constant
Bit rate : 192 Kbps
Channel(s) : 2 channels
Sampling rate : 48.0 KHz
Compression mode : Lossy
Stream size : 148 MiB (7%)
Alignment : Aligned on interleaves
Interleave, duration : 24 ms (0.60 video frame)
Interleave, preload duration : 504 ms
Writing library : LAME3.99.5


[/mediainfo]

Notes:
Notes : Blurred the logo, Hardcoded subs, Light scenes are too sharped , Black scenes are too dark, but thats all youre going to get for now :)
Greetz to everyone :)

TRACKERSEEDLEECHDOWNLOADED
udp://tracker.coppersurfer.tk:6969/announce0017648
http://mgtracker.org:2710/announce001
udp://9.rarbg.me:2710/announce
udp://11.rarbg.me:80/announce
udp://10.rarbg.me:80/announce
udp://12.rarbg.me:80/announce
udp://9.rarbg.com:2710/announce
udp://open.demonii.com:1337/announce
udp://tracker.publicbt.com:80/announce
udp://tracker.istole.it:80/announce
udp://tracker.openbittorrent.com:80/announce
udp://tracker.istole.it:6969/announce
http://tracker.istole.it/announce
http://tracker.leechers-paradise.org:6969/announce
http://bt.careland.com.cn:6969/announce
http://bttracker.crunchbanglinux.org:6969/announce
http://tracker.best-torrents.net:6969/announce
http://tracker.trackerfix.com/announce
http://exodus.desync.com:6969/announce
udp://tracker.ccc.de:80/announce
http://tracker.thepiratebay.org/announce
http://shadowshq.yi.org:6969/announce
http://www.eddie4.nl:6969/announce
http://eddie4.nl:6969/announce
http://server1.9sheng.cn:6969/announce
http://sugoi.pomf.se/announce
http://sugoi.pomf.se:2710/announce
http://bt2.careland.com.cn:6969/announce
http://bt3.careland.com.cn:6969/announce
http://95.85.40.114/announce
http://121.14.98.151:9090/announce
udp://tracker-ccc.de:6969/announce
FILESIZE
Edge.of.Tomorrow.2014.TC.HC.XviD.MP3-RARBG.avi2.04 GB
RARBG.com.avi1.14 MB
Edge.of.Tomorrow.2014.TC.HC.XviD.MP3-RARBG.nfo3.36 KB
RARBG.com.txt31 B

Related results

Date Title Size Files Seeds Leechs Category Health
Video(Movies) 1.62 GB 4 2014-06-04 1 0 25%
Video(Movies) 1.67 GB 4 2014-06-09 1 0 25%
Video(Movies) 3.15 GB 4 2014-06-11 1 0 25%
Video(Movies) 906.61 MB 4 2014-06-17 1 0 25%
Video(Movies) 818.34 MB 4 2014-04-29 1 0 25%
Video(Movies) 3.22 GB 4 2014-09-08 0 0 N/A
Video(Movies) 3.51 GB 4 2014-09-08 10 9 100%
Video(Movies) 988.28 MB 4 2014-09-08 0 1 25%

Login

Account deleting

Are you sure you want to delete your account?

WARNING: This action cannot be undone!!!