Login / Register
HDRiP

Hercules.Reborn.2014.BRRip.XviD.MP3-RARBG

Category: Video
Type: Movies
Language: English
Movie Title: The Women
Detected quality: HDRiP
Cast: George Cukor,Clare Boothe Luce,Anita Loos,Jane Murfin,F. Scott Fitzgerald,Donald Ogden Stewart,Norma Shearer,Joan Crawford,Rosalind Russell,Mary Boland,Paulette Goddard,Phyllis Povah,Joan Fontaine,Virginia Weidler,Lucile Watson,Marjorie Mai
Genre: Comedy, Drama
External Links: IMDB
Director: George Cukor
Producer: Hunt Stromberg
Writer: Anita Loos
Duration: 133
IMDB rating: 4.2 (4,493 votes)
Summary: Wealthy Mary Haines is unaware her husband is having an affair with shopgirl Crystal Allen. Sylvia Fowler and Edith Potter discover this from a manicurist and arrange for Mary to hear the gossip. On the train taking her to a Reno divorce Mary meets the Countess and Miriam (in an affair with Fowler's husband). While they are at Lucy's dude ranch, Fowler arrives for her own divorce and the Countess meets fifth husband-to-be Buck. Back in New York, Mary's ex is now unhappily married to Crystal who is already in an affair with Buck. When Sylvia lets this story slip at a country club dinner, Crystal brags of her plans for a still wealthier marriage, only to find the Countess is the source of all Buck's money. Crystal must return to the perfume counter and Mary runs back to her husband.
Votes
Good: 0
Bad: 0
GoodBad
1
Seeders
0
Leechers

Added: 2014-07-12

Size: 1.19 GB

Health: 25%

Hash (Base16): 20DD7AF2D6159893B1E254AE728A4D6546C80061

Hash (Base32): EDOXV4WWCWMJHMPCKSXHFCSNMVDMQADB

DownloadBookmark
^

Hercules.Reborn.2014.BRRip.XviD.MP3-RARBG

image

Title: Hercules Reborn (2014)
Genres: Action , Adventure
Actors: John Hennigan , Christian Oliver , Christina Ulfsparre , James Duval , Dylan Vox , Ben Chagra Khalid , Alistair A. Duff , Foued Mansour , Jeremy M. Inman , Jennifer Marie Paul , Marcus Shirock , Aurelie Armelle Simone Chatellier , Rim Touassi , Yassine Amer , Youness Lahlafi
Runtime: 95
Year: 2014
Plot:
When a young man's bride is kidnapped by an evil king| he turns to Hercules for help. The fallen hero has been living in exile| banished for killing his family| but
the young man's courage inspires Hercules. Together| they fight to rescue the bride and reclaim the honor of Hercules.


Hercules.Reborn.2014.BRRip.XviD.MP3-RARBG

http://www.imdb.com/title/tt3499424/

Screens:
image
image
image
image
image
image

Info:

[mediainfo]

Format : AVI
Format/Info : Audio Video Interleave
File size : 1.19 GiB
Duration : 1h 34mn
Overall bit rate : 1 801 Kbps
Movie name : RARBG.COM - Hercules.Reborn.2014.BRRip.XviD.MP3-RARBG
Writing library : VirtualDub build 35491/release
Comment : RARBG.COM - Hercules.Reborn.2014.BRRip.XviD.MP3-RARBG

Video
ID : 0
Format : MPEG-4 Visual
Format profile : Simple@L5
Format settings, BVOP : No
Format settings, QPel : No
Format settings, GMC : No warppoints
Format settings, Matrix : Default (H.263)
Codec ID : XVID
Codec ID/Hint : XviD
Duration : 1h 34mn
Bit rate : 1 596 Kbps
Width : 720 pixels
Height : 406 pixels
Display aspect ratio : 16:9
Frame rate : 23.976 fps
Color space : YUV
Chroma subsampling : 4:2:0
Bit depth : 8 bits
Scan type : Progressive
Compression mode : Lossy
Bits/(Pixel*Frame) : 0.228
Stream size : 1.06 GiB (89%)
Writing library : Lavc55.61.100

Audio
ID : 1
Format : MPEG Audio
Format version : Version 1
Format profile : Layer 3
Mode : Joint stereo
Codec ID : 55
Codec ID/Hint : MP3
Duration : 1h 34mn
Bit rate mode : Constant
Bit rate : 192 Kbps
Channel(s) : 2 channels
Sampling rate : 48.0 KHz
Compression mode : Lossy
Stream size : 130 MiB (11%)
Alignment : Aligned on interleaves
Interleave, duration : 24 ms (0.58 video frame)
Interleave, preload duration : 504 ms
Writing library : LAME3.99.5


[/mediainfo]

Notes:
Greetz to everyone :)

TRACKERSEEDLEECHDOWNLOADED
http://mgtracker.org:2710/announce
udp://9.rarbg.me:2710/announce
udp://11.rarbg.me:80/announce
udp://10.rarbg.me:80/announce
udp://12.rarbg.me:80/announce
udp://9.rarbg.com:2710/announce
udp://open.demonii.com:1337/announce
udp://tracker.publicbt.com:80/announce
udp://tracker.istole.it:80/announce
udp://tracker.openbittorrent.com:80/announce
udp://tracker.istole.it:6969/announce
http://tracker.istole.it/announce
http://tracker1.wasabii.com.tw:6969/announce
http://tracker.leechers-paradise.org:6969/announce
http://bt.careland.com.cn:6969/announce
http://bttracker.crunchbanglinux.org:6969/announce
http://tracker.best-torrents.net:6969/announce
http://tracker.trackerfix.com/announce
http://9.rarbg.com:2710/announce
udp://tracker.ccc.de:80/announce
http://tracker.thepiratebay.org/announce
http://shadowshq.yi.org:6969/announce
http://www.eddie4.nl:6969/announce
http://eddie4.nl:6969/announce
http://www.elitezones.ro/announce.php
http://elitezones.ro/announce.php
http://121.14.98.151:9090/announce
udp://tracker-ccc.de:6969/announce
FILESIZE
Hercules.Reborn.2014.BRRip.XviD.MP3-RARBG.avi1.19 GB
RARBG.com.avi1.14 MB
Hercules.Reborn.2014.BRRip.XviD.MP3-RARBG.nfo3.11 KB
RARBG.com.txt31 B

Related results

Date Title Size Files Seeds Leechs Category Health
Video(Movies) 1.36 GB 4 2014-07-11 1 0 25%
Video(Movies) 2.94 GB 4 2014-07-11 1 0 25%
Video(Movies) 1.03 GB 4 2014-07-12 0 0 N/A

Login

Account deleting

Are you sure you want to delete your account?

WARNING: This action cannot be undone!!!