Login / Register

The.Jungle.Book.Jungle.Party.2014.DVDRip.XviD.MP3-RARBG

Category: Video
Type: Movies
Language: English
Movie Title: The Women
Detected quality: DVDRip
Release date: 2015-10-08
Cast: George Cukor,Clare Boothe Luce,Anita Loos,Jane Murfin,F. Scott Fitzgerald,Donald Ogden Stewart,Norma Shearer,Joan Crawford,Rosalind Russell,Mary Boland,Paulette Goddard,Phyllis Povah,Joan Fontaine,Virginia Weidler,Lucile Watson,Marjorie Mai
Genre: Comedy, Drama
External Links: IMDB
Director: George Cukor
Producer: Hunt Stromberg
Writer: Anita Loos
Duration: 133
Summary: Wealthy Mary Haines is unaware her husband is having an affair with shopgirl Crystal Allen. Sylvia Fowler and Edith Potter discover this from a manicurist and arrange for Mary to hear the gossip. On the train taking her to a Reno divorce Mary meets the Countess and Miriam (in an affair with Fowler's husband). While they are at Lucy's dude ranch, Fowler arrives for her own divorce and the Countess meets fifth husband-to-be Buck. Back in New York, Mary's ex is now unhappily married to Crystal who is already in an affair with Buck. When Sylvia lets this story slip at a country club dinner, Crystal brags of her plans for a still wealthier marriage, only to find the Countess is the source of all Buck's money. Crystal must return to the perfume counter and Mary runs back to her husband.
Votes
Good: 0
Bad: 0
GoodBad
0
Seeders
1
Leechers

Added: 2014-07-12

Size: 1.25 GB

Health: 25%

Hash (Base16): ED638576D27F8A2030F62F84B6E7A0F553B49C1E

Hash (Base32): 5VRYK5WSP6FCAMHWF6CLNZ5A6VJ3JHA6

DownloadBookmark
^
The.Jungle.Book.Jungle.Party.2014.DVDRip.XviD.MP3-RARBG

image



Screens:
image
image
image
image
image
image

Info:

[mediainfo]

Format : AVI
Format/Info : Audio Video Interleave
File size : 1.25 GiB
Duration : 1h 14mn
Overall bit rate : 2 400 Kbps
Movie name : RARBG.COM - The.Jungle.Book.Jungle.Party.2014.DVDRip.XviD.MP3-RARBG
Writing library : VirtualDub build 35491/release
Comment : RARBG.COM - The.Jungle.Book.Jungle.Party.2014.DVDRip.XviD.MP3-RARBG

Video
ID : 0
Format : MPEG-4 Visual
Format profile : [email protected]
Format settings, BVOP : No
Format settings, QPel : No
Format settings, GMC : No warppoints
Format settings, Matrix : Default (H.263)
Codec ID : XVID
Codec ID/Hint : XviD
Duration : 1h 14mn
Bit rate : 2 196 Kbps
Width : 720 pixels
Height : 400 pixels
Display aspect ratio : 16:9
Frame rate : 23.976 fps
Color space : YUV
Chroma subsampling : 4:2:0
Bit depth : 8 bits
Scan type : Progressive
Compression mode : Lossy
Bits/(Pixel*Frame) : 0.318
Stream size : 1.14 GiB (92%)
Writing library : Lavc55.61.100

Audio
ID : 1
Format : MPEG Audio
Format version : Version 1
Format profile : Layer 3
Mode : Joint stereo
Mode extension : MS Stereo
Codec ID : 55
Codec ID/Hint : MP3
Duration : 1h 13mn
Bit rate mode : Constant
Bit rate : 192 Kbps
Channel(s) : 2 channels
Sampling rate : 48.0 KHz
Compression mode : Lossy
Stream size : 101 MiB (8%)
Alignment : Aligned on interleaves
Interleave, duration : 24 ms (0.58 video frame)
Interleave, preload duration : 504 ms

[/mediainfo]

Notes:
Sauce: MiLLeniuM
Greetz to everyone :)

TRACKERSEEDLEECHDOWNLOADED
http://mgtracker.org:2710/announce
udp://9.rarbg.me:2710/announce
udp://11.rarbg.me:80/announce
udp://10.rarbg.me:80/announce
udp://12.rarbg.me:80/announce
udp://9.rarbg.com:2710/announce
udp://open.demonii.com:1337/announce
udp://tracker.publicbt.com:80/announce
udp://tracker.istole.it:80/announce
udp://tracker.openbittorrent.com:80/announce
udp://tracker.istole.it:6969/announce
http://tracker.istole.it/announce
http://tracker1.wasabii.com.tw:6969/announce
http://tracker.leechers-paradise.org:6969/announce
http://bt.careland.com.cn:6969/announce
http://tracker.trackerfix.com/announce
udp://tracker.ccc.de:80/announce
http://tracker.thepiratebay.org/announce
http://shadowshq.eddie4.nl:6969/announce
http://retracker.perm.ertelecom.ru/announce
udp://tracker-ccc.de:6969/announce
FILESIZE
The.Jungle.Book.Jungle.Party.2014.DVDRip.XviD.MP3-RARBG.avi1.25 GB
RARBG.com.avi1.14 MB
The.Jungle.Book.Jungle.Party.2014.DVDRip.XviD.MP3-RARBG.nfo3.17 KB
RARBG.com.txt31 B

Related results

Date Title Size Files Seeds Leechs Category Health
Video(Movies) 1.24 GB 4 2014-07-10 1 0 25%
Video(Movies) 1.24 GB 5 2014-07-10 0 1 25%
Video(Movies) 694.51 MB 1 2014-08-17 0 0 N/A
Video(Movies) 694.51 MB 1 2014-08-20 0 4 25%

Login

Account deleting

Are you sure you want to delete your account?

WARNING: This action cannot be undone!!!