Login / Register
HDRiP

A.Night.in.Old.Mexico.2013.BRRip.XviD.MP3-RARBG

Category: Video
Type: Movies
Language: English
Movie Title: A Night in Old Mexico
Detected quality: HDRiP
Release date: 2014-05-08
Cast: Jeremy Irvine,Gilberto Flores,Robert Duvall,Abraham Benrubi,James Landry Hébert,Jim Parrack,Toby Metcalf,Joaquín Cosio,Renee Victor,Angie Cepeda,Sonny Carl Davis,Michael Ray Escamilla,Eric A. Williams,Luis Tosar,Ck McFarland,Billy Joe Shaver
Genre: Drama, Western
External Links: IMDB
Director: Emilio Aragón
Producers: Robert Duvall,Emilio Aragón,Christopher Bates,Rob Carliner,Santiago De la Rica,William D. Wittliff,Eric A. Williams,Sunmin Park,J. Ethan Park,Axel Kuschevatzky,Daniel Écija,Gabriel Arias-Salgado,César Vargas,Maria Aragón,Itziar Puga
Writer: William D. Wittliff
Duration: 103
IMDB rating: 5.8 (1,886 votes)
Summary: Forced to give up his land and his only home, cantankerous Texas rancher Red Bovie isn't about to go quietly to the dismal trailer park that's all he can now afford, and instead goes off with his grandson Gally - son of his long-estranged son Jimmy - for one last wild and woolly adventure during a night in Old Mexico.
Votes
Good: 0
Bad: 0
GoodBad
0
Seeders
4
Leechers

Added: 2014-07-12

Size: 1.27 GB

Health: 25%

Hash (Base16): EC44DA2709F67583227926B664A576A2127564D7

Hash (Base32): 5RCNUJYJ6Z2YGITZE23GJJLWUIJHKZGX

DownloadBookmark
^

A.Night.in.Old.Mexico.2013.BRRip.XviD.MP3-RARBG

image

Title: A Night in Old Mexico (2013)
IMDB Rating: 6.2/10
Genres: Drama
Actors: Robert Duvall , Jeremy Irvine , Angie Cepeda , Luis Tosar , Joaquín Cosio , Javier Gutiérrez , Rene Rhi , Jim Parrack , James Landry Hébert , Michael Ray Escamilla , Abraham Benrubi , Ck McFarland , Jonathan Cuellar , Eric A. Williams , Toby Metcalf
Runtime: 103
Year: 2013
Plot:
Forced to give up his land and his only home| cantankerous Texas rancher Red Bovie isn't about to go quietly to the dismal trailer park that's all he can now afford|
and instead goes off with his grandson Gally - son of his long-estranged son Jimmy - for one last wild and woolly adventure during a night in Old Mexico.



A.Night.in.Old.Mexico.2013.BRRip.XviD.MP3-RARBG

http://imdb.com/title/tt2308260/

Screens:
image
image
image
image
image
image

Info:

[mediainfo]

Format : AVI
Format/Info : Audio Video Interleave
File size : 1.27 GiB
Duration : 1h 44mn
Overall bit rate : 1 753 Kbps
Movie name : RARBG.COM - A.Night.in.Old.Mexico.2013.BRRip.XviD.MP3-RARBG
Writing library : VirtualDub build 35491/release
Comment : RARBG.COM - A.Night.in.Old.Mexico.2013.BRRip.XviD.MP3-RARBG

Video
ID : 0
Format : MPEG-4 Visual
Format profile : [email protected]
Format settings, BVOP : No
Format settings, QPel : No
Format settings, GMC : No warppoints
Format settings, Matrix : Default (H.263)
Codec ID : XVID
Codec ID/Hint : XviD
Duration : 1h 44mn
Bit rate : 1 548 Kbps
Width : 720 pixels
Height : 300 pixels
Display aspect ratio : 2.40:1
Frame rate : 23.976 fps
Color space : YUV
Chroma subsampling : 4:2:0
Bit depth : 8 bits
Scan type : Progressive
Compression mode : Lossy
Bits/(Pixel*Frame) : 0.299
Stream size : 1.12 GiB (88%)
Writing library : Lavc55.61.100

Audio
ID : 1
Format : MPEG Audio
Format version : Version 1
Format profile : Layer 3
Mode : Joint stereo
Mode extension : MS Stereo
Codec ID : 55
Codec ID/Hint : MP3
Duration : 1h 44mn
Bit rate mode : Constant
Bit rate : 192 Kbps
Channel(s) : 2 channels
Sampling rate : 48.0 KHz
Compression mode : Lossy
Stream size : 143 MiB (11%)
Alignment : Aligned on interleaves
Interleave, duration : 24 ms (0.58 video frame)
Interleave, preload duration : 504 ms


[/mediainfo]

Notes:
Greetz to everyone :)

TRACKERSEEDLEECHDOWNLOADED
udp://9.rarbg.me:2710/announce
udp://11.rarbg.me:80/announce
udp://10.rarbg.me:80/announce
udp://12.rarbg.me:80/announce
udp://9.rarbg.com:2710/announce
udp://open.demonii.com:1337/announce
udp://tracker.publicbt.com:80/announce
udp://tracker.istole.it:80/announce
udp://tracker.openbittorrent.com:80/announce
udp://tracker.istole.it:6969/announce
http://tracker.istole.it/announce
http://tracker.trackerfix.com/announce
udp://tracker.ccc.de:80/announce
http://tracker.thepiratebay.org/announce
udp://tracker-ccc.de:6969/announce
FILESIZE
A.Night.in.Old.Mexico.2013.BRRip.XviD.MP3-RARBG.avi1.27 GB
RARBG.com.avi1.14 MB
A.Night.in.Old.Mexico.2013.BRRip.XviD.MP3-RARBG.nfo3.12 KB
RARBG.com.txt31 B

Related results

Date Title Size Files Seeds Leechs Category Health
Video(Movies) 1.46 GB 4 2014-07-11 0 3 25%
Video(Movies) 3.04 GB 4 2014-07-11 0 3 25%

Login

Account deleting

Are you sure you want to delete your account?

WARNING: This action cannot be undone!!!