Login / Register

Brick Mansions 2014 DVDRip x264 AC3-MiLLENiUM

Category: Video
Type: Movies
Movie Title: Brick Mansions
Cast: Paul Walker,David Belle,RZA,Frank Fontaine,Catalina Denis,Robert Maillet,Annie Li Meng Tong,Carlo Rota,Mark Camacho,Mark Camacho,David McKeown,Danny Blanco Hall,Danny Blanco Hall,Andy Bradshaw,Ron Lea,Andreas Apergis,Richard Zeman,Bruce Ramsay
Genre: Action, Crime, Drama
External Links: IMDB
Director: Camille Delamarre
Producers: Luc Besson,Matt Alvarez,Romuald Drault,Ginette Guillard,Jonathan Vanger,Tucker Tooley,Ryan Kavanaugh,Henri Deneubourg,Jason Beckman,Jason Colodne,Claude Léger
Writers: Luc Besson,Bibi Naceri
Duration: 90
Summary: An undercover Detroit cop navigates a dangerous neighborhood that's surrounded by a containment wall with the help of an ex-con in order to bring down a crime lord and his plot to devastate the entire city.
Votes
Good: 0
Bad: 0
GoodBad
1
Seeders
0
Leechers

Added: 2014-07-14

Size: 1.35 GB

Health: 25%

Hash (Base16): 94C8E97054A4E1A3874ABB70C17DAD7C44513321

Hash (Base32): STEOS4CUUTQ2HB2KXNYMC7NNPRCFCMZB

DownloadBookmark
^

Brick Mansions 2014 DVDRip x264 AC3-MiLLENiUM

image

Title: Brick Mansions (2014)
IMDB Rating: 5.9/10
Genres: Action , Crime , Drama
Actors: Paul Walker , David Belle , RZA , Gouchy Boy , Catalina Denis , Ayisha Issa , Carlo Rota , Andreas Apergis , Richard Zeman , Robert Maillet , Bruce Ramsay , Frank Fontaine , Chimwemwe Miller , Bradshaw Anderson , Ryan Trudeau
Runtime: 90
Year: 2014
Plot:
An undercover Detroit cop navigates a dangerous neighborhood that's surrounded by a containment wall with the help of an ex-con in order to bring down a crime lord
and his plot to devastate the entire city. [mediainfo]


Format : Matroska
Format version : Version 2
File size : 1.33 GiB
Duration : 1h 30mn
Overall bit rate mode : Variable
Overall bit rate : 2 110 Kbps
Encoded date : UTC 2014-07-14 12:36:11
Writing application : mkvmerge v7.0.0 ('Where We Going') 32bit built on Jun 9 2014 15:08:34
Writing library : libebml v1.3.0 + libmatroska v1.4.1
DURATION : 01:30:10.048000000
NUMBER_OF_FRAMES : 169064
NUMBER_OF_BYTES : 302962688
_STATISTICS_WRITING_APP : mkvmerge v7.0.0 ('Where We Going') 32bit built on Jun 9 2014 15:08:34
_STATISTICS_WRITING_DATE_UTC : 2014-07-14 12:36:11
_STATISTICS_TAGS : BPS DURATION NUMBER_OF_FRAMES NUMBER_OF_BYTES

Video
ID : 1
Format : AVC
Format/Info : Advanced Video Codec
Format profile : High@L4.1
Format settings, CABAC : Yes
Format settings, ReFrames : 3 frames
Codec ID : V_MPEG4/ISO/AVC
Duration : 1h 30mn
Bit rate mode : Variable
Bit rate : 1 620 Kbps
Maximum bit rate : 40.0 Mbps
Width : 720 pixels
Height : 304 pixels
Display aspect ratio : 2.35:1
Frame rate mode : Constant
Frame rate : 23.976 fps
Color space : YUV
Chroma subsampling : 4:2:0
Bit depth : 8 bits
Scan type : Progressive
Bits/(Pixel*Frame) : 0.309
Stream size : 1.02 GiB (77%)
Writing library : x264 core 142 r2431 ac76440
Encoding settings : cabac=1 / ref=4 / deblock=1:1:1 / analyse=0x3:0x113 / me=umh / subme=9 / psy=1 / psy_rd=0.40:0.00 / mixed_ref=1 / me_range=18 / chroma_me=1 / trellis=2 / 8x8dct=1 / cqm=0 / deadzone=21,11 / fast_pskip=0 / chroma_qp_offset=-2 / threads=16 / lookahead_threads=1 / sliced_threads=0 / slices=4 / nr=0 / decimate=1 / interlaced=0 / bluray_compat=0 / constrained_intra=0 / bframes=3 / b_pyramid=1 / b_adapt=2 / b_bias=0 / direct=1 / weightb=1 / open_gop=0 / weightp=0 / keyint=23 / keyint_min=1 / scenecut=40 / intra_refresh=0 / rc_lookahead=23 / rc=crf / mbtree=1 / crf=19.0 / qcomp=0.60 / qpmin=10 / qpmax=51 / qpstep=4 / vbv_maxrate=40000 / vbv_bufsize=30000 / crf_max=0.0 / nal_hrd=vbr / filler=0 / ip_ratio=1.40 / aq=1:0.60
Default : Yes
Forced : No
Color primaries : BT.709
Transfer characteristics : BT.709
Matrix coefficients : BT.709

Audio
ID : 2
Format : AC-3
Format/Info : Audio Coding 3
Mode extension : CM (complete main)
Format settings, Endianness : Big
Codec ID : A_AC3
Duration : 1h 30mn
Bit rate mode : Constant
Bit rate : 448 Kbps
Channel(s) : 6 channels
Channel positions : Front: L C R, Side: L R, LFE
Sampling rate : 48.0 KHz
Bit depth : 16 bits
Compression mode : Lossy
Stream size : 289 MiB (21%)
Language : English
Default : Yes
Forced : No

[/mediainfo]

TRACKERSEEDLEECHDOWNLOADED
http://mgtracker.org:2710/announce
udp://9.rarbg.me:2710/announce
udp://11.rarbg.me:80/announce
udp://10.rarbg.me:80/announce
udp://12.rarbg.me:80/announce
udp://9.rarbg.com:2710/announce
udp://open.demonii.com:1337/announce
udp://tracker.publicbt.com:80/announce
udp://tracker.istole.it:80/announce
udp://tracker.openbittorrent.com:80/announce
udp://tracker.istole.it:6969/announce
http://tracker.istole.it/announce
http://tracker.trackerfix.com/announce
http://exodus.desync.com:6969/announce
udp://tracker.ccc.de:80/announce
http://tracker.thepiratebay.org/announce
udp://tracker-ccc.de:6969/announce
FILESIZE
Brick Mansions 2014 DVDRip x264 AC3-MiLLENiUM.mkv1.33 GB
RARBG.com.txt31 B
Sample.mkv25.05 MB
brick.nfo4.02 KB

Related results

Date Title Size Files Seeds Leechs Category Health
Video(Movies) 1.35 GB 4 2014-07-13 1 0 25%
Video(Movies) 1.35 GB 4 2014-07-13 0 2 25%
Video(Movies) 1.35 GB 5 2014-07-13 1 0 25%

Login

Account deleting

Are you sure you want to delete your account?

WARNING: This action cannot be undone!!!