Login / Register
DVDRip

K-9 Adventures Legend of the Lost Gold 2014 DVDRip x264 AC3-MiLLENiUM

Category: Video
Type: Movies
Movie Title: K-9 Adventures: Legend of the Lost Gold
Detected quality: DVDRip
Cast: Luke Perry,Bob Clendenin,Brian Finn,Brooke Langton,Terence Goodman,Adam Johnson,Morgan Mabey,Renny Grames,Jasen Wade,Sarah Kent
Genre: Family
External Links: IMDB
Director: Stephen Shimek
Producers: T.R. Gourley,Kristi Shimek,David M. Wulf
Writers: Daryn Tufts,Stephen Shimek
Duration: 90
Summary: When Kassie and her friends stumble across an old, broken pocket watch they begin an unexpected journey to unlock the secret of the legendary Garrison Gold. They'll have to solve riddles and follow clues to find the lost treasure. With the help of her faithful dog, Scoot and her gang of misfit friends, Kassie is about to go on the adventure of a lifetime!
Votes
Good: 0
Bad: 0
GoodBad
0
Seeders
1
Leechers

Added: 2014-07-13

Size: 1.02 GB

Health: 25%

Hash (Base16): 9FE6859B3D3C08EB5372FDFED9C093477DCCDDDA

Hash (Base32): T7TILGZ5HQEOWU3S7X7NTQETI564ZXO2

DownloadBookmark
^

K-9 Adventures Legend of the Lost Gold 2014 DVDRip x264 AC3-MiLLENiUM

image
[mediainfo]


Format : Matroska
Format version : Version 2
File size : 1.00 GiB
Duration : 1h 27mn
Overall bit rate mode : Variable
Overall bit rate : 1 636 Kbps
Encoded date : UTC 2014-07-13 02:20:10
Writing application : mkvmerge v7.0.0 ('Where We Going') 32bit built on Jun 9 2014 15:08:34
Writing library : libebml v1.3.0 + libmatroska v1.4.1
DURATION : 01:27:31.104000000
NUMBER_OF_FRAMES : 164097
NUMBER_OF_BYTES : 294061824
_STATISTICS_WRITING_APP : mkvmerge v7.0.0 ('Where We Going') 32bit built on Jun 9 2014 15:08:34
_STATISTICS_WRITING_DATE_UTC : 2014-07-13 02:20:10
_STATISTICS_TAGS : BPS DURATION NUMBER_OF_FRAMES NUMBER_OF_BYTES

Video
ID : 1
Format : AVC
Format/Info : Advanced Video Codec
Format profile : High@L4.1
Format settings, CABAC : Yes
Format settings, ReFrames : 3 frames
Codec ID : V_MPEG4/ISO/AVC
Duration : 1h 27mn
Bit rate mode : Variable
Bit rate : 1 156 Kbps
Maximum bit rate : 40.0 Mbps
Width : 720 pixels
Height : 400 pixels
Display aspect ratio : 16:9
Frame rate mode : Constant
Frame rate : 25.000 fps
Color space : YUV
Chroma subsampling : 4:2:0
Bit depth : 8 bits
Scan type : Progressive
Bits/(Pixel*Frame) : 0.161
Stream size : 724 MiB (71%)
Writing library : x264 core 142 r2431 ac76440
Encoding settings : cabac=1 / ref=4 / deblock=1:-1:-1 / analyse=0x3:0x113 / me=umh / subme=9 / psy=1 / psy_rd=1.00:0.15 / mixed_ref=1 / me_range=18 / chroma_me=1 / trellis=2 / 8x8dct=1 / cqm=0 / deadzone=21,11 / fast_pskip=0 / chroma_qp_offset=-3 / threads=16 / lookahead_threads=1 / sliced_threads=0 / slices=4 / nr=0 / decimate=1 / interlaced=0 / bluray_compat=0 / constrained_intra=0 / bframes=3 / b_pyramid=1 / b_adapt=2 / b_bias=0 / direct=1 / weightb=1 / open_gop=0 / weightp=0 / keyint=24 / keyint_min=2 / scenecut=40 / intra_refresh=0 / rc_lookahead=24 / rc=crf / mbtree=1 / crf=21.0 / qcomp=0.60 / qpmin=10 / qpmax=51 / qpstep=4 / vbv_maxrate=40000 / vbv_bufsize=30000 / crf_max=0.0 / nal_hrd=vbr / filler=0 / ip_ratio=1.40 / aq=1:1.00
Default : Yes
Forced : No
Color primaries : BT.709
Transfer characteristics : BT.709
Matrix coefficients : BT.709

Audio
ID : 2
Format : AC-3
Format/Info : Audio Coding 3
Mode extension : CM (complete main)
Format settings, Endianness : Big
Codec ID : A_AC3
Duration : 1h 27mn
Bit rate mode : Constant
Bit rate : 448 Kbps
Channel(s) : 6 channels
Channel positions : Front: L C R, Side: L R, LFE
Sampling rate : 48.0 KHz
Bit depth : 16 bits
Compression mode : Lossy
Stream size : 280 MiB (27%)
Language : English
Default : Yes
Forced : No

[/mediainfo]

TRACKERSEEDLEECHDOWNLOADED
http://mgtracker.org:2710/announce
udp://9.rarbg.me:2710/announce
udp://11.rarbg.me:80/announce
udp://10.rarbg.me:80/announce
udp://12.rarbg.me:80/announce
udp://9.rarbg.com:2710/announce
udp://open.demonii.com:1337/announce
udp://tracker.publicbt.com:80/announce
udp://tracker.istole.it:80/announce
udp://tracker.openbittorrent.com:80/announce
udp://tracker.istole.it:6969/announce
http://tracker.istole.it/announce
http://tracker.trackerfix.com/announce
http://exodus.desync.com:6969/announce
udp://tracker.ccc.de:80/announce
http://tracker.thepiratebay.org/announce
udp://tracker-ccc.de:6969/announce
FILESIZE
K-9 Adventures Legend of the Lost Gold 2014 DVDRip x264 AC3-MiLLENiUM.mkv1 GB
RARBG.com.txt31 B
Sample.mkv20.03 MB
k9.nfo4.12 KB

Related results

Date Title Size Files Seeds Leechs Category Health
Video(Movies) 1.02 GB 4 2014-07-12 0 1 25%
Video(Movies) 1.02 GB 4 2014-07-12 0 1 25%

Login

Account deleting

Are you sure you want to delete your account?

WARNING: This action cannot be undone!!!