Login / Register

Need for Speed (2014) BDRip XviD-MAXSPEED

Category: Video
Type: Movies
Movie Title: Heatstroke
Cast: Evelyn Purcell,Stephen Dorff,Svetlana Metkina,Andrew Roux,Peter Stormare,Maisie Williams,Theuns De Wet,David Lancaster,Jörg Westerkamp,David Wicht,Ben Nott,Ronelle Loots,Emilia Roux,Francesca Van Der Feyst,Sarah Potts,Jon-Luke Lourens,David Glassco
Genre: Thriller
Director: Evelyn Purcell
Producer: Theuns De Wet
Writer: Anne Brooksbank
Duration: 92
Summary: On a family trip in the African desert, a research scientist unintentionally travels off course and is brutally murdered by an arms dealer. His girlfriend is put to the ultimate survival test as she attempts to evade the killers and protect his teenage daughter.
Votes
Good: 0
Bad: 0
GoodBad
1
Seeders
1
Leechers

Added: 2014-07-12

Size: 1.67 GB

Health: 25%

Hash (Base16): C2E5210F4AB1F3FB0D035CB67E40660342A6E912

Hash (Base32): YLSSCD2KWHZ7WDIDLS3H4QDGANBKN2IS

DownloadBookmark
^
http://torentz.3xforum.ro/post/3457/1/Need_for_Speed_2014_DVDRip_XviD-MAXSPEED/

image

Screens:

image
image
image
image

ScreenCaps:

image

Need for Speed (2014) DVDRip XviD-MAXSPEED
Format : AVI
Format/Info : Audio Video Interleave
Format profile : OpenDML
Format settings : rec
File size : 1.66 GiB
Duration : 2h 10mn
Overall bit rate : 1 819 Kbps
Writing application : VirtualDubMod 1.5.10.2 (build 2542/release)
Writing library : VirtualDubMod build 2542/release
Original source form : MAX TORRENTZ
Copyright : SIGISMUNT

Video
ID : 0
Format : MPEG-4 Visual
Format profile : Advanced Simple@L5
Format settings, BVOP : 2
Format settings, QPel : No
Format settings, GMC : No warppoints
Format settings, Matrix : Default (H.263)
Codec ID : XVID
Codec ID/Hint : XviD
Duration : 2h 10mn
Bit rate : 1 366 Kbps
Width : 720 pixels
Height : 304 pixels
Display aspect ratio : 2.35:1
Frame rate : 23.976 fps
Color space : YUV
Chroma subsampling : 4:2:0
Bit depth : 8 bits
Scan type : Progressive
Compression mode : Lossy
Bits/(Pixel*Frame) : 0.260
Stream size : 1.25 GiB (75%)
Writing library : XviD 1.2.1 (UTC 2008-12-04)

Audio
ID : 1
Format : AC-3
Format/Info : Audio Coding 3
Mode extension : CM (complete main)
Format settings, Endianness : Big
Codec ID : 2000
Duration : 2h 10mn
Bit rate mode : Constant
Bit rate : 448 Kbps
Channel(s) : 6 channels
Channel positions : Front: L C R, Side: L R, LFE
Sampling rate : 48.0 KHz
Bit depth : 16 bits
Compression mode : Lossy
Stream size : 419 MiB (25%)
Alignment : Aligned on interleaves
Interleave, duration : 64 ms (1.53 video frames)
Interleave, preload duration : 192 ms

Source: DVD (perfect a/v/sync quality,sample included)
This torrent is not seedbox supported,please seed it to the MAX

Uploader Note: If you think image it's a little dark then VLC-Ctrl+E-Video Effects-
-Image adjust-Brightness-Close, simple as 1,2,3 so no complaints about this please,thanks

Note: If you have something to offer as early releases,seedboxes,
contact us on  or 

How To Get Your MAXSPEED (uTorrent)

Torrent Client - Preferences - Bandwidth - Number of connections - Set aprox. 500 for each
Torrent Client - Preferences - BiTorrent - Protocol Encryption - Forced
Bandwidth Allocation - High (Set download/upload limit - Unlimited)
Stop Other Active Torrents - Start downloading and wait for connections.
Enjoy and Seed for at least 1:1 ratio. Don't forget to say thanks/leave reviews.
If screens/Caps image host is dead googlesearch "release name"+"screens" or "sample".
Greets to all actual/future p2p/scene QUALITY groups and affiliate websites.
Don't trust IMDb robot or bad ratings,always watch some trailers first.
Ignore stupid comments/fake/mislabeled/no-DVDrips/CAM/TS/RAR uploads.
Please spread this release/torrent to your friends/forums/etc.
If you need translation subs visit some subtitles sites.
Report if you see online streaming or other spam links.
Recommended movie player VLC PLAYER.
TRACKERSEEDLEECHDOWNLOADED
udp://tracker.coppersurfer.tk:6969/announce101
udp://9.rarbg.me:2710/announce
udp://11.rarbg.me:80/announce
udp://10.rarbg.me:80/announce
udp://12.rarbg.me:80/announce
udp://9.rarbg.com:2710/announce
udp://open.demonii.com:1337/announce
udp://tracker.publicbt.com:80/announce
udp://tracker.istole.it:80/announce
udp://tracker.openbittorrent.com:80/announce
udp://tracker.istole.it:6969/announce
http://tracker.tfile.me/announce
http://tracker.trackerfix.com/announce
udp://exodus.desync.com:6969/announce
http://exodus.desync.com:6969/announce
udp://tracker.publicbt.com/announce
udp://tracker.ccc.de:80/announce
udp://10.rarbg.com/announce
udp://inferno.demonoid.ph:3389/announce
udp://pow7.com:80/announce
http://tracker.thepiratebay.org/announce
http://i.bandito.org/announce
udp://tracker.token.ro:80/announce
udp://ipv4.tracker.harry.lu:80/announce
udp://tracker.prq.to/announce
udp://bt.rghost.net:80/announce
udp://tracker.zond.org:80/announce
udp://tracker-ccc.de:6969/announce
FILESIZE
Need for Speed (2014) DVDRip XviD-MAXSPEED www.torentz.3xforum.ro.avi1.66 GB
sample.avi7.7 MB
screencaps.jpeg539 KB
Need for Speed (2014) DVDRip XviD-MAXSPEED.nfo3.5 KB

Login

Account deleting

Are you sure you want to delete your account?

WARNING: This action cannot be undone!!!