Login / Register

X-Art.14.06.25.Caprice.Clover.And.Carrie.Drinks.For.2.XXX.1080p.MP4-KTR

Category: XXX
Type: Other
Votes
Good: 0
Bad: 0
GoodBad
0
Seeders
2
Leechers

Added: 2014-06-25

Size: 1.21 GB

Health: 25%

Hash (Base16): F1C8EA85A5E4A3AA7180EE0A7E9613C430F77850

Hash (Base32): 6HEOVBNF4SR2U4MA5YFH5FQTYQYPO6CQ

DownloadBookmark
^

Screenshots:

Brought to you by rarbg.com

[mediainfo]
Video
ID                                       : 1
Format                                   : MPEG-4 Visual
Format profile                           : Simple@L1
Format settings, BVOP                    : No
Format settings, QPel                    : No
Format settings, GMC                     : No warppoints
Format settings, Matrix                  : Default (H.263)
Codec ID                                 : 20
Duration                                 : 20mn 13s
Bit rate mode                            : Constant
Bit rate                                 : 8 455 Kbps
Width                                    : 1 920 pixels
Height                                   : 1 080 pixels
Display aspect ratio                     : 16:9
Frame rate mode                          : Constant
Frame rate                               : 25.000 fps
Color space                              : YUV
Chroma subsampling                       : 4:2:0
Bit depth                                : 8 bits
Scan type                                : Progressive
Compression mode                         : Lossy
Bits/(Pixel*Frame)                       : 0.163
Stream size                              : 1.19 GiB (98%)
Writing library                          : Lavc55.52.102
Language                                 : English

Audio
ID                                       : 2
Format                                   : AAC
Format/Info                              : Advanced Audio Codec
Format profile                           : LC
Codec ID                                 : 40
Duration                                 : 20mn 13s
Duration_LastFrame                       : 21ms
Bit rate mode                            : Constant
Bit rate                                 : 128 Kbps
Channel(s)                               : 2 channels
Channel positions                        : Front: L R
Sampling rate                            : 48.0 KHz
Compression mode                         : Lossy
Stream size                              : 18.5 MiB (1%)
Language                                 : English


[/mediainfo]

TRACKERSEEDLEECHDOWNLOADED
udp://9.rarbg.me:2710/announce
udp://11.rarbg.me:80/announce
udp://10.rarbg.me:80/announce
udp://12.rarbg.me:80/announce
udp://9.rarbg.com:2710/announce
udp://open.demonii.com:1337/announce
udp://tracker.publicbt.com:80/announce
udp://tracker.openbittorrent.com:80/announce
udp://tracker.istole.it:6969/announce
http://tracker.istole.it/announce
http://tracker.trackerfix.com/announce
http://tracker.thepiratebay.org/announce
udp://tracker-ccc.de:6969/announce
FILESIZE
RARBG.com.txt31 B
xart.14.06.25.caprice.clover.and.carrie.drinks.for.2.mp41.21 GB

Login

Account deleting

Are you sure you want to delete your account?

WARNING: This action cannot be undone!!!