Login / Register

Suits.S04E04.HDTV.x264-KILLERS[rartv]

Category: Video
Type: TV
Movie Title: Suits
Season: 4
Episode: 4
Episode Title: Leveraged
Release date: 2014-07-08
Cast: Egidio Tari,Bruce Altman,Kristi Angus,Harvey Atkin,John Bedford Lloyd,Sean Bell,John Billingsley,Sergio Di Zio,JR Bourne,Donald Burda,Jacob Blair,Eric Close,Ari Cohen,Gary Cole,Teddy Coluca,Chad Connell,Matt Cooke,Alicia Coppola,Suzanne Coy
Genre: Comedy, Drama
External Links: IMDB
Directors: Tim Matheson,Norberto Barba,Kevin Bray,Anton Cropper,Adam Davidson,Félix Enríquez Alcalá,Christopher Misiano,John Scott,David Platt,Cherie Nowlan,James Whitmore Jr.,Terry McDonough,Jennifer Getzinger,Roger Kumble,Michael Smith,Dennie Gordon
Producers: Kevin Bray,Jon Cowan,Anton Cropper,Daniel Arkin,Steve Wakefield,Igor Srubshchik,Jonathan Starch,Jonathan Hackett,Sean Jablonski,Aaron Korsh,Doug Liman,Gabriel Macht,Rick Muirragui,Chris Downey,Paul Redford,Genevieve Sparling,Gavin Barclay,Patrick J. Adams
Writers: Jon Cowan,Daniel Arkin,Sean Jablonski,Karla Gadecki,Aaron Korsh,Rick Muirragui,Chris Downey,Paul Redford,Genevieve Sparling,Lilla Zuckerman,Nora Zuckerman,Ethan Drogin,Kyle Long,Erica Lipez,Justin Peacock
Duration: 45
Original run: 2011-06-22
IMDB rating: 8.8 (164,319 votes)
Summary: On the run from a drug deal gone bad, Mike Ross, a brilliant college-dropout, finds himself a job working with Harvey Specter, one of New York City's best lawyers.
Votes
Good: 0
Bad: 0
GoodBad
1
Seeders
0
Leechers

Added: 2014-07-10

Size: 282.72 MB

Health: 25%

Hash (Base16): B8AEE6FB4BB315F157742E93E1B92262BE28D42C

Hash (Base32): XCXON62LWMK7CV3UF2J6DOJCMK7CRVBM

DownloadBookmark
^

Suits.S04E04.HDTV.x264-KILLERS[rartv]

image
[mediainfo]

Video
ID : 2
Format : AVC
Format/Info : Advanced Video Codec
Format profile : [email protected]
Format settings, CABAC : Yes
Format settings, ReFrames : 5 frames
Codec ID : avc1
Codec ID/Info : Advanced Video Coding
Duration : 43mn 45s
Source duration : 43mn 45s
Bit rate : 769 Kbps
Maximum bit rate : 5 055 Kbps
Width : 720 pixels
Height : 404 pixels
Display aspect ratio : 16:9
Frame rate mode : Constant
Frame rate : 23.976 fps
Color space : YUV
Chroma subsampling : 4:2:0
Bit depth : 8 bits
Scan type : Progressive
Bits/(Pixel*Frame) : 0.110
Stream size : 241 MiB (85%)
Source stream size : 241 MiB (85%)
Writing library : x264 core 142 r2431 ac76440
Encoding settings : cabac=1 / ref=5 / deblock=1:0:0 / analyse=0x3:0x113 / me=umh / subme=8 / psy=1 / psy_rd=1.00:0.00 / mixed_ref=1 / me_range=16 / chroma_me=1 / trellis=1 / 8x8dct=1 / cqm=0 / deadzone=21,11 / fast_pskip=1 / chroma_qp_offset=-2 / threads=18 / lookahead_threads=3 / sliced_threads=0 / nr=0 / decimate=1 / interlaced=0 / bluray_compat=0 / constrained_intra=0 / bframes=3 / b_pyramid=2 / b_adapt=2 / b_bias=0 / direct=3 / weightb=1 / open_gop=0 / weightp=2 / keyint=250 / keyint_min=23 / scenecut=40 / intra_refresh=0 / rc_lookahead=50 / rc=crf / mbtree=1 / crf=19.0 / qcomp=0.60 / qpmin=0 / qpmax=69 / qpstep=4 / ip_ratio=1.40 / aq=1:1.00
Encoded date : UTC 2014-07-10 04:05:26
Tagged date : UTC 2014-07-10 04:15:08
Matrix coefficients : BT.709

Audio
ID : 1
Format : AAC
Format/Info : Advanced Audio Codec
Format profile : LC
Codec ID : 40
Duration : 43mn 45s
Bit rate mode : Variable
Bit rate : 132 Kbps
Maximum bit rate : 175 Kbps
Channel(s) : 2 channels
Channel positions : Front: L R
Sampling rate : 48.0 KHz
Compression mode : Lossy
Stream size : 40.6 MiB (14%)
Encoded date : UTC 2014-07-10 04:15:07
Tagged date : UTC 2014-07-10 04:15:08

[/mediainfo]

TRACKERSEEDLEECHDOWNLOADED
udp://9.rarbg.me:2710/announce
udp://11.rarbg.me:80/announce
udp://10.rarbg.me:80/announce
udp://12.rarbg.me:80/announce
udp://9.rarbg.com:2710/announce
udp://open.demonii.com:1337/announce
udp://tracker.publicbt.com:80/announce
udp://tracker.istole.it:80/announce
udp://tracker.openbittorrent.com:80/announce
udp://tracker.istole.it:6969/announce
http://tracker.istole.it/announce
http://tracker.trackerfix.com/announce
http://exodus.desync.com:6969/announce
udp://tracker.ccc.de:80/announce
http://tracker.thepiratebay.org/announce
udp://tracker-ccc.de:6969/announce
FILESIZE
RARBG.com.txt31 B
Suits.S04E04.HDTV.x264-KILLERS.mp4282.71 MB
suits.s04e04.hdtv.x264-killers.nfo10.79 KB

Related results

Date Title Size Files Seeds Leechs Category Health
Video(TV) 1.06 GB 4 2014-07-09 0 4 25%
Video(TV) 247.08 MB 3 2014-04-03 1 0 25%
Video(TV) 247.85 MB 3 2014-03-20 1 0 25%
Video(TV) 286.66 MB 3 2014-07-16 1 0 25%
Video(TV) 1.07 GB 4 2014-07-16 0 4 25%
Video(TV) 276.83 MB 3 2014-07-30 1 0 25%
Video(TV) 1013.77 MB 3 2014-07-30 1 1 25%
Video(TV) 1 MB 3 2014-08-06 2 0 100%

Login

Account deleting

Are you sure you want to delete your account?

WARNING: This action cannot be undone!!!