Login / Register
HDRiP

The.Other.Woman.2014.WEB-DL.XviD.MP3-RARBG

Category: Video
Type: Movies
Language: English
Subtitles: English
Movie Title: The Other Woman
Detected quality: HDRiP
Release date: 2014-04-24
Cast: Kate Upton,Cameron Diaz,Leslie Mann,Nikolaj Coster-Waldau,Taylor Kinney,Nicki Minaj,Don Johnson,Jeanmarie Lally,Uzimann,Nina Barry,Alyshia Ochse,Ashley Cusato,Madison McKinley,Victor Cruz,David Thornton,Tony Joe,Craig Castaldo,Alan Davis,Colin Bannon
Genre: Comedy, Romance
External Links: IMDB
Director: Nick Cassavetes
Producers: Maguy R. Cohen,Julie Yorn,Donald J. Lee Jr.,Chuck Pacheco,Patrick Walmsley
Writer: Melissa Stack
Duration: 109
IMDB rating: 6.0 (69,121 votes)
Summary: After discovering her boyfriend is married, Carly soon meets the wife he's been betraying. And when yet another love affair is discovered, all three women team up to plot revenge on the three-timing S.O.B.
Votes
Good: 0
Bad: 0
GoodBad
1
Seeders
0
Leechers

Added: 2014-07-15

Size: 1.38 GB

Health: 25%

Hash (Base16): 95B1488FCC1683EFEDC0580DE08D20B0E0A888A1

Hash (Base32): SWYURD6MC2B673OALAG6BDJAWDQKRCFB

DownloadBookmark
^

The.Other.Woman.2014.WEB-DL.XviD.MP3-RARBG

image

Title: The Other Woman (2014)
IMDB Rating: 6.4/10
Genres: Comedy , Romance
Actors: Cameron Diaz , Leslie Mann , Nikolaj Coster-Waldau , Don Johnson , Kate Upton , Taylor Kinney , Nicki Minaj , Kenneth Maharaj , Alyshia Ochse , Victor Cruz , Madison McKinley , David Thornton , Olivia Culpo , John 'B.J.' Bryant , Chelsea Turnbo
Runtime: 109
Year: 2014
Plot:
After discovering her boyfriend is married| Carly Whitten tries to get her ruined life back on track. But when she accidentally meets the wife he's been cheating on|
she realizes they have much in common| and her sworn enemy becomes her greatest friend. When yet another affair is discovered| all three women team up to plot mutual
revenge on their cheating| lying| three-timing SOB.


The.Other.Woman.2014.WEB-DL.XviD.MP3-RARBG

http://imdb.com/title/tt2203939/

Screens:
image
image
image
image
image
image

Info:

[mediainfo]

Format : AVI
Format/Info : Audio Video Interleave
File size : 1.37 GiB
Duration : 1h 49mn
Overall bit rate : 1 797 Kbps
Movie name : RARBG.COM - The.Other.Woman.2014.WEB-DL.XviD.MP3-RARBG
Writing library : VirtualDub build 35491/release
Comment : RARBG.COM - The.Other.Woman.2014.WEB-DL.XviD.MP3-RARBG

Video
ID : 0
Format : MPEG-4 Visual
Format profile : Simple@L5
Format settings, BVOP : No
Format settings, QPel : No
Format settings, GMC : No warppoints
Format settings, Matrix : Default (H.263)
Codec ID : XVID
Codec ID/Hint : XviD
Duration : 1h 49mn
Bit rate : 1 593 Kbps
Width : 720 pixels
Height : 300 pixels
Display aspect ratio : 2.40:1
Frame rate : 23.976 fps
Color space : YUV
Chroma subsampling : 4:2:0
Bit depth : 8 bits
Scan type : Progressive
Compression mode : Lossy
Bits/(Pixel*Frame) : 0.308
Stream size : 1.22 GiB (89%)
Writing library : Lavc55.61.100

Audio
ID : 1
Format : MPEG Audio
Format version : Version 1
Format profile : Layer 3
Mode : Joint stereo
Mode extension : MS Stereo
Codec ID : 55
Codec ID/Hint : MP3
Duration : 1h 49mn
Bit rate mode : Constant
Bit rate : 192 Kbps
Channel(s) : 2 channels
Sampling rate : 48.0 KHz
Compression mode : Lossy
Stream size : 150 MiB (11%)
Alignment : Aligned on interleaves
Interleave, duration : 24 ms (0.58 video frame)
Interleave, preload duration : 504 ms



[/mediainfo]

Notes:
Greetz to everyone :)

TRACKERSEEDLEECHDOWNLOADED
udp://9.rarbg.me:2710/announce
udp://11.rarbg.me:80/announce
udp://10.rarbg.me:80/announce
udp://12.rarbg.me:80/announce
udp://9.rarbg.com:2710/announce
udp://open.demonii.com:1337/announce
udp://tracker.publicbt.com:80/announce
udp://tracker.istole.it:80/announce
udp://tracker.openbittorrent.com:80/announce
udp://tracker.istole.it:6969/announce
http://tracker.istole.it/announce
http://tracker.trackerfix.com/announce
http://9.rarbg.com:2710/announce
udp://tracker.ccc.de:80/announce
http://tracker.thepiratebay.org/announce
udp://tracker-ccc.de:6969/announce
FILESIZE
The.Other.Woman.2014.WEB-DL.XviD.MP3-RARBG.avi1.37 GB
RARBG.com.avi1.14 MB
The.Other.Woman.2014.WEB-DL.XviD.MP3-RARBG.srt215.56 KB
The.Other.Woman.2014.WEB-DL.XviD.MP3-RARBG.nfo3.11 KB
RARBG.com.txt31 B

Related results

Date Title Size Files Seeds Leechs Category Health
Video(Movies) 6.19 GB 4 2014-07-14 0 2 25%
Video(Movies) 1.29 GB 5 2014-07-14 0 1 25%
Video(Movies) 1.37 GB 5 2014-07-14 1 0 25%
Video(Movies) 1.57 GB 5 2014-07-14 1 0 25%
Video(Movies) 3.39 GB 5 2014-07-14 0 1 25%
Video(Movies) 956.44 MB 5 2014-07-14 0 1 25%
Video(Movies) 1.73 GB 4 2014-07-03 1 0 25%
Video(Movies) 1.52 GB 4 2014-06-20 1 1 25%

Login

Account deleting

Are you sure you want to delete your account?

WARNING: This action cannot be undone!!!