Login / Register

True.Blood.S07E04.HDTV.x264-KILLERS[rartv]

Category: Video
Type: TV
Movie Title: True Blood
Season: 7
Episode: 4
Episode Title: Death is Not the End
Release date: 2014-07-12
Cast: Katherine Helmond,Anna Paquin,Alexander Skarsgård,Kristina Anapau,Alfre Woodard,Scott Foley,Leslie Stevens,Vincent M. Ward,Jeanine Anderson,Thea Andrews,Chris Bauer,Kristin Bauer van Straten,Annica McCrudden,Bryan Becker,Earl Billings,John Billingsley
Genre: Drama, Fantasy, Mystery
External Links: IMDB
Directors: John Dahl,Lee Rose,Daniel Attias,David Petrarca,Alan Ball,Michael Cuesta,Adam Davidson,Howard Deutch,Daniel Minahan,Gregg Fienberg,Lesli Linka Glatter,Stephen Moyer,Michael Lehmann,Scott Winant,Michael Ruscio,Simon Jayes,Jeremy Podeswa,Nick Gomez
Producers: David Auge,Alan Ball,Brian Buckner,Robert Del Valle,Robert Del Valle,Rob DesHotel,Howard Deutch,Bruce Dunn,Gregg Fienberg,Bill Johnson,Marlis Pujol,W. Mark McNair,Ron Cosmo Vecchiarelli,Carol Dunn Trussell,Mark Hudis,Sunday Stevens,Christina Jokanovich
Writers: Alan Ball,Brian Buckner,Craig Chester,Mark Hudis,Kate Barnow,Angela Robinson,Robin Veith,Nancy Oliver,Chris Offutt,Raelle Tucker,Alexander Woo,Charlaine Harris,Elisabeth Finch,Daniel Kenneth
Duration: 60
Original run: 2008-09-06
IMDB rating: 8.0 (184,934 votes)
Summary: Telepathic waitress Sookie Stackhouse encounters a strange new supernatural world when she meets the mysterious Bill, a southern Louisiana gentleman and vampire.
Votes
Good: 0
Bad: 0
GoodBad
1
Seeders
1
Leechers

Added: 2014-07-14

Size: 506.17 MB

Health: 25%

Hash (Base16): D73BCA39CF884474F71CB5BBAD84797EF7A2B660

Hash (Base32): 2454UOOPRBCHJ5Y4WW523BDZP332FNTA

DownloadBookmark
^

True.Blood.S07E04.HDTV.x264-KILLERS[rartv]

image
[mediainfo]

Video
ID : 2
Format : AVC
Format/Info : Advanced Video Codec
Format profile : High@L3.1
Format settings, CABAC : Yes
Format settings, ReFrames : 5 frames
Codec ID : avc1
Codec ID/Info : Advanced Video Coding
Duration : 54mn 57s
Source duration : 54mn 57s
Bit rate : 1 148 Kbps
Maximum bit rate : 14.2 Mbps
Width : 720 pixels
Height : 404 pixels
Display aspect ratio : 16:9
Frame rate mode : Constant
Frame rate : 23.976 fps
Color space : YUV
Chroma subsampling : 4:2:0
Bit depth : 8 bits
Scan type : Progressive
Bits/(Pixel*Frame) : 0.165
Stream size : 451 MiB (89%)
Source stream size : 451 MiB (89%)
Writing library : x264 core 142 r2431 ac76440
Encoding settings : cabac=1 / ref=5 / deblock=1:0:0 / analyse=0x3:0x113 / me=umh / subme=8 / psy=1 / psy_rd=1.00:0.00 / mixed_ref=1 / me_range=16 / chroma_me=1 / trellis=1 / 8x8dct=1 / cqm=0 / deadzone=21,11 / fast_pskip=1 / chroma_qp_offset=-2 / threads=18 / lookahead_threads=3 / sliced_threads=0 / nr=0 / decimate=1 / interlaced=0 / bluray_compat=0 / constrained_intra=0 / bframes=3 / b_pyramid=2 / b_adapt=2 / b_bias=0 / direct=3 / weightb=1 / open_gop=0 / weightp=2 / keyint=250 / keyint_min=23 / scenecut=40 / intra_refresh=0 / rc_lookahead=50 / rc=crf / mbtree=1 / crf=19.0 / qcomp=0.60 / qpmin=0 / qpmax=69 / qpstep=4 / ip_ratio=1.40 / aq=1:1.00
Encoded date : UTC 2014-07-13 23:22:31
Tagged date : UTC 2014-07-14 02:00:34
Matrix coefficients : BT.709

Audio
ID : 1
Format : AAC
Format/Info : Advanced Audio Codec
Format profile : LC
Codec ID : 40
Duration : 54mn 57s
Bit rate mode : Variable
Bit rate : 135 Kbps
Maximum bit rate : 178 Kbps
Channel(s) : 2 channels
Channel positions : Front: L R
Sampling rate : 48.0 KHz
Compression mode : Lossy
Stream size : 53.1 MiB (10%)
Encoded date : UTC 2014-07-14 02:00:31
Tagged date : UTC 2014-07-14 02:00:34

[/mediainfo]

TRACKERSEEDLEECHDOWNLOADED
udp://9.rarbg.me:2710/announce
udp://11.rarbg.me:80/announce
udp://10.rarbg.me:80/announce
udp://12.rarbg.me:80/announce
udp://9.rarbg.com:2710/announce
udp://open.demonii.com:1337/announce
udp://tracker.publicbt.com:80/announce
udp://tracker.istole.it:80/announce
udp://tracker.openbittorrent.com:80/announce
udp://tracker.istole.it:6969/announce
http://tracker.istole.it/announce
http://tracker1.wasabii.com.tw:6969/announce
http://bttracker.crunchbanglinux.org:6969/announce
http://tracker.best-torrents.net:6969/announce
http://tracker.trackerfix.com/announce
http://9.rarbg.com:2710/announce
udp://tracker.ccc.de:80/announce
http://tracker.thepiratebay.org/announce
http://www.eddie4.nl:6969/announce
udp://tracker-ccc.de:6969/announce
FILESIZE
RARBG.com.txt31 B
True.Blood.S07E04.HDTV.x264-KILLERS.mp4506.16 MB
true.blood.s07e04.hdtv.x264-killers.nfo10.61 KB

Related results

Date Title Size Files Seeds Leechs Category Health
Video(TV) 460.93 MB 3 2014-07-06 0 1 25%
Video(TV) 428.22 MB 3 2014-06-22 0 2 25%
Video(TV) 2.27 GB 4 2014-06-22 0 1 25%
Video(TV) 488.53 MB 3 2014-07-20 0 1 25%
Video(TV) 385.73 MB 3 2014-08-10 0 1 25%

Login

Account deleting

Are you sure you want to delete your account?

WARNING: This action cannot be undone!!!