Login / Register

The.Legend.of.Korra.S03E05.HDTV.x264-W4F[rartv]

Category: Video
Type: TV
Movie Title: The Legend of Korra
Season: 3
Episode: 5
Episode Title: The Metal Clan
Release date: 2014-07-10
Cast: Mindy Sterling,Steve Blum,Richard Epcar,Dee Bradley Baker,Eva Marie Saint,Logan Wells,Jeff Bennett,Tom Kenny,Carlos Alazraqui,Steve Blum,Steve Blum,Steve Blum,Maria Bamford,Stephen Root,David Faustino,George Coe,P.J. Byrne,J.K. Simmons,Dante Basco
Genre: Animation, Action, Adventure
External Links: IMDB
Directors: Colin Heck,Ian Graham,Ki Hyun Ryu,Joaquim Dos Santos,Melchior Zwyer
Producers: Michael Dante DiMartino,Bryan Konietzko,Ki Hyun Ryu,Joaquim Dos Santos,Tim Yoon
Writers: Michael Dante DiMartino,Bryan Konietzko,Tim Hedrick,Joshua Hamilton,Katie Mattila
Duration: 24
Original run: 2012-04-13
IMDB rating: 8.7 (46,323 votes)
Summary: Avatar Korra fights to keep Republic City safe from the evil forces of both the physical and spiritual worlds.
Votes
Good: 0
Bad: 0
GoodBad
1
Seeders
0
Leechers

Added: 2014-07-12

Size: 113.64 MB

Health: 25%

Hash (Base16): F4B83FE23A15EB44BFCE9D260F995BB1EFF4BCF8

Hash (Base32): 6S4D7YR2CXVUJP6OTUTA7GK3WHX7JPHY

DownloadBookmark
^

The.Legend.of.Korra.S03E05.HDTV.x264-W4F[rartv]

image
[mediainfo]

Video
ID : 1
Format : AVC
Format/Info : Advanced Video Codec
Format profile : High@L3.1
Format settings, CABAC : Yes
Format settings, ReFrames : 5 frames
Codec ID : avc1
Codec ID/Info : Advanced Video Coding
Duration : 22mn 26s
Bit rate : 566 Kbps
Maximum bit rate : 4 403 Kbps
Width : 720 pixels
Height : 404 pixels
Display aspect ratio : 16:9
Frame rate mode : Constant
Frame rate : 23.976 fps
Color space : YUV
Chroma subsampling : 4:2:0
Bit depth : 8 bits
Scan type : Progressive
Bits/(Pixel*Frame) : 0.081
Stream size : 90.8 MiB (80%)
Title : Video
Writing library : x264 core 142 r2431 ac76440
Encoding settings : cabac=1 / ref=5 / deblock=1:0:0 / analyse=0x3:0x113 / me=umh / subme=8 / psy=1 / psy_rd=1.00:0.00 / mixed_ref=1 / me_range=16 / chroma_me=1 / trellis=1 / 8x8dct=1 / cqm=0 / deadzone=21,11 / fast_pskip=1 / chroma_qp_offset=-2 / threads=12 / lookahead_threads=2 / sliced_threads=0 / nr=0 / decimate=1 / interlaced=0 / bluray_compat=0 / constrained_intra=0 / bframes=3 / b_pyramid=2 / b_adapt=2 / b_bias=0 / direct=3 / weightb=1 / open_gop=0 / weightp=2 / keyint=250 / keyint_min=23 / scenecut=40 / intra_refresh=0 / rc_lookahead=50 / rc=crf / mbtree=1 / crf=19.0 / qcomp=0.60 / qpmin=0 / qpmax=69 / qpstep=4 / ip_ratio=1.40 / aq=1:1.00
Encoded date : UTC 2014-07-12 01:54:17
Tagged date : UTC 2014-07-12 01:54:19
Matrix coefficients : BT.709

Audio
ID : 2
Format : AAC
Format/Info : Advanced Audio Codec
Format profile : LC
Codec ID : 40
Duration : 22mn 26s
Bit rate mode : Variable
Bit rate : 138 Kbps
Maximum bit rate : 178 Kbps
Channel(s) : 2 channels
Channel positions : Front: L R
Sampling rate : 48.0 KHz
Compression mode : Lossy
Stream size : 22.1 MiB (19%)
Encoded date : UTC 2014-07-12 01:54:19
Tagged date : UTC 2014-07-12 01:54:19

[/mediainfo]

TRACKERSEEDLEECHDOWNLOADED
http://mgtracker.org:2710/announce
udp://9.rarbg.me:2710/announce
udp://11.rarbg.me:80/announce
udp://10.rarbg.me:80/announce
udp://12.rarbg.me:80/announce
udp://9.rarbg.com:2710/announce
udp://open.demonii.com:1337/announce
udp://tracker.publicbt.com:80/announce
udp://tracker.istole.it:80/announce
udp://tracker.openbittorrent.com:80/announce
udp://tracker.istole.it:6969/announce
http://tracker.istole.it/announce
http://tracker1.wasabii.com.tw:6969/announce
http://tracker.leechers-paradise.org:6969/announce
http://bt.careland.com.cn:6969/announce
http://tracker.best-torrents.net:6969/announce
http://tracker.trackerfix.com/announce
udp://tracker.ccc.de:80/announce
http://tracker.thepiratebay.org/announce
http://shadowshq.eddie4.nl:6969/announce
http://shadowshq.yi.org:6969/announce
http://www.eddie4.nl:6969/announce
http://tracker.kuaikuai.cn:8080/announce
http://sugoi.pomf.se:2710/announce
http://bt2.careland.com.cn:6969/announce
http://bt3.careland.com.cn:6969/announce
http://retracker.perm.ertelecom.ru/announce
http://tracker2.wasabii.com.tw:6969/announce
http://tracker.mg64.net:6881/announce
http://95.85.40.114/announce
udp://tracker-ccc.de:6969/announce
FILESIZE
RARBG.com.txt31 B
the.legend.of.korra.s03e05.hdtv.x264-w4f.mp4113.63 MB
the.legend.of.korra.s03e05.hdtv.x264-w4f.nfo6.05 KB

Related results

Date Title Size Files Seeds Leechs Category Health
Video(TV) 418.96 MB 4 2014-07-11 0 1 25%
Video(TV) 369.38 MB 3 2014-07-11 1 0 25%
Video(TV) 755.64 MB 4 2014-06-27 1 0 25%
Video(TV) 360.22 MB 3 2014-07-18 0 1 25%
Video(TV) 384.07 MB 3 2014-07-18 0 1 25%
Video(TV) 390.6 MB 4 2014-07-25 1 1 25%
Video(TV) 322.76 MB 3 2014-11-14 1 0 25%
Video(TV) 290.13 MB 4 2014-11-27 1 0 25%

Login

Account deleting

Are you sure you want to delete your account?

WARNING: This action cannot be undone!!!